SHARE
TWEET

Untitled

a guest Aug 18th, 2017 122 Never
Not a member of Pastebin yet? Sign Up, it unlocks many cool features!
  1. REM GENRE Classical
  2. REM DATE 2007
  3. REM DISCID 430FB306
  4. REM COMMENT "ExactAudioCopy v0.99pb4"
  5. PERFORMER "Beethoven"
  6. TITLE "Complete Masterpieces - CD10"
  7. FILE "Beethoven - Complete Masterpieces - CD10.flac" WAVE
  8.   TRACK 01 AUDIO
  9.     TITLE "Piano Concerto No.1 in C Major Op.15 - Allegro con brio"
  10.     PERFORMER "Beethoven"
  11.     FLAGS PRE DCP
  12.     INDEX 01 00:00:00
  13.   TRACK 02 AUDIO
  14.     TITLE "Piano Concerto No.1 in C Major Op.15 - Largo"
  15.     PERFORMER "Beethoven"
  16.     FLAGS PRE DCP
  17.     INDEX 00 18:03:69
  18.     INDEX 01 18:08:52
  19.   TRACK 03 AUDIO
  20.     TITLE "Piano Concerto No.1 in C Major Op.15 - Rondo - Allegro scherzando"
  21.     PERFORMER "Beethoven"
  22.     FLAGS PRE DCP
  23.     INDEX 00 28:45:04
  24.     INDEX 01 28:46:62
  25.   TRACK 04 AUDIO
  26.     TITLE "Piano Concerto No.2 in B-flat Major Op.19 - Allegro con brio"
  27.     PERFORMER "Beethoven"
  28.     FLAGS PRE DCP
  29.     INDEX 00 37:35:43
  30.     INDEX 01 37:44:26
  31.   TRACK 05 AUDIO
  32.     TITLE "Piano Concerto No.2 in B-flat Major Op.19 - Adagio"
  33.     PERFORMER "Beethoven"
  34.     FLAGS PRE DCP
  35.     INDEX 00 51:55:08
  36.     INDEX 01 51:58:66
  37.   TRACK 06 AUDIO
  38.     TITLE "Piano Concerto No.2 in B-flat Major Op.19 - Rondo - Molto allegro"
  39.     PERFORMER "Beethoven"
  40.     FLAGS PRE DCP
  41.     INDEX 00 60:47:31
  42.     INDEX 01 60:49:14
RAW Paste Data
We use cookies for various purposes including analytics. By continuing to use Pastebin, you agree to our use of cookies as described in the Cookies Policy. OK, I Understand
 
Top