SHARE
TWEET

Fair.Game.1986.1080p.BluRay.REMUX.AVC.DTS-HD.MA.2.0-EPSiLON

a guest Jun 14th, 2019 25 Never
Not a member of Pastebin yet? Sign Up, it unlocks many cool features!
  1. General
  2. Unique ID                                : 308089477738641018904843432652484288250 (0xE7C7E004C47F762AE75BFDA04CAA9EFA)
  3. Complete name                            : Fair.Game.1986.1080p.BluRay.REMUX.AVC.DTS-HD.MA.2.0-EPSiLON.mkv
  4. Format                                   : Matroska
  5. Format version                           : Version 4
  6. File size                                : 16.3 GiB
  7. Duration                                 : 1 h 25 min
  8. Overall bit rate mode                    : Variable
  9. Overall bit rate                         : 27.3 Mb/s
  10. Movie name                               : Fair Game (1986)
  11. Encoded date                             : UTC 2017-12-29 09:14:25
  12. Writing application                      : mkvmerge v19.0.0 ('Brave Captain') 64-bit
  13. Writing library                          : libebml v1.3.5 + libmatroska v1.4.8
  14.  
  15. Video
  16. ID                                       : 1
  17. Format                                   : AVC
  18. Format/Info                              : Advanced Video Codec
  19. Format profile                           : High@L4.1
  20. Format settings                          : CABAC / 3 Ref Frames
  21. Format settings, CABAC                   : Yes
  22. Format settings, Reference frames        : 3 frames
  23. Codec ID                                 : V_MPEG4/ISO/AVC
  24. Duration                                 : 1 h 25 min
  25. Bit rate mode                            : Variable
  26. Bit rate                                 : 25.0 Mb/s
  27. Width                                    : 1 920 pixels
  28. Height                                   : 1 080 pixels
  29. Display aspect ratio                     : 16:9
  30. Frame rate mode                          : Constant
  31. Frame rate                               : 23.976 (24000/1001) FPS
  32. Standard                                 : NTSC
  33. Color space                              : YUV
  34. Chroma subsampling                       : 4:2:0
  35. Bit depth                                : 8 bits
  36. Scan type                                : Progressive
  37. Bits/(Pixel*Frame)                       : 0.503
  38. Stream size                              : 14.9 GiB (91%)
  39. Title                                    : MPEG-4 AVC Video / 24783 kbps / 1080p / 23.976 fps / 16:9 / High Profile 4.1
  40. Writing library                          : x264pro - Adobe CS Exporter Plug-in
  41. Encoding settings                        : cabac=1 / ref=4 / deblock=1:-1:-1 / analyse=0x3:0x133 / me=umh / subme=10 / psy=1 / psy_rd=1.00:0.15 / mixed_ref=1 / me_range=24 / chroma_me=1 / trellis=2 / 8x8dct=1 / cqm=0 / deadzone=21,11 / fast_pskip=1 / chroma_qp_offset=-3 / threads=48 / lookahead_threads=8 / sliced_threads=0 / slices=4 / nr=0 / decimate=1 / interlaced=0 / bluray_compat=1 / constrained_intra=0 / bframes=3 / b_pyramid=1 / b_adapt=2 / b_bias=0 / direct=3 / weightb=1 / open_gop=0 / weightp=1 / keyint=24 / keyint_min=1 / scenecut=40 / intra_refresh=0 / rc_lookahead=28 / rc=2pass / mbtree=1 / bitrate=25000 / ratetol=1.0 / qcomp=0.60 / qpmin=0 / qpmax=69 / qpstep=4 / cplxblur=20.0 / qblur=0.5 / vbv_maxrate=25000 / vbv_bufsize=30000 / nal_hrd=vbr / ip_ratio=1.40 / aq=1:1.00
  42. Language                                 : English
  43. Default                                  : Yes
  44. Forced                                   : No
  45. Color range                              : Limited
  46. Color primaries                          : BT.709
  47. Transfer characteristics                 : BT.709
  48. Matrix coefficients                      : BT.709
  49.  
  50. Audio #1
  51. ID                                       : 2
  52. Format                                   : DTS XLL
  53. Format/Info                              : Digital Theater Systems
  54. Commercial name                          : DTS-HD Master Audio
  55. Codec ID                                 : A_DTS
  56. Duration                                 : 1 h 25 min
  57. Bit rate mode                            : Variable
  58. Bit rate                                 : 2 098 kb/s
  59. Channel(s)                               : 2 channels
  60. Sampling rate                            : 48.0 kHz
  61. Frame rate                               : 93.750 FPS (512 SPF)
  62. Bit depth                                : 24 bits
  63. Compression mode                         : Lossless
  64. Stream size                              : 1.26 GiB (8%)
  65. Title                                    : DTS-HD Master Audio / 2.0 / 48 kHz / 2098 kbps / 24-bit
  66. Language                                 : English
  67. Default                                  : Yes
  68. Forced                                   : No
  69.  
  70. Audio #2
  71. ID                                       : 3
  72. Format                                   : AC-3
  73. Format/Info                              : Audio Coding 3
  74. Commercial name                          : Dolby Digital
  75. Codec ID                                 : A_AC3
  76. Duration                                 : 1 h 25 min
  77. Bit rate mode                            : Constant
  78. Bit rate                                 : 384 kb/s
  79. Channel(s)                               : 2 channels
  80. Channel layout                           : L R
  81. Sampling rate                            : 48.0 kHz
  82. Frame rate                               : 31.250 FPS (1536 SPF)
  83. Bit depth                                : 16 bits
  84. Compression mode                         : Lossy
  85. Stream size                              : 236 MiB (1%)
  86. Title                                    : Commentary by Director Mario Andreacchio and Screenwriter Rob George
  87. Language                                 : English
  88. Service kind                             : Complete Main
  89. Default                                  : No
  90. Forced                                   : No
  91.  
  92. Menu
  93. 00:00:00.000                             : en:Chapter 1
  94. 00:00:03.003                             : en:Chapter 2
  95. 00:12:51.020                             : en:Chapter 3
  96. 00:22:14.166                             : en:Chapter 4
  97. 00:28:00.178                             : en:Chapter 5
  98. 00:34:25.605                             : en:Chapter 6
  99. 00:43:13.007                             : en:Chapter 7
  100. 00:51:50.691                             : en:Chapter 8
  101. 00:55:32.412                             : en:Chapter 9
  102. 01:03:44.320                             : en:Chapter 10
  103. 01:09:36.422                             : en:Chapter 11
  104. 01:14:41.686                             : en:Chapter 12
  105. 01:23:50.359                             : en:Chapter 13
RAW Paste Data
We use cookies for various purposes including analytics. By continuing to use Pastebin, you agree to our use of cookies as described in the Cookies Policy. OK, I Understand
 
Top