SHARE
TWEET

Boruto Log

a guest May 27th, 2019 128 Never
Not a member of Pastebin yet? Sign Up, it unlocks many cool features!
  1.  
  2. -------------------------- System Environment --------------------------
  3.  
  4. StaxRip    : 1.7.0.0
  5. Windows    : Windows 10 Pro 1903
  6. Language   : English (United States)
  7. CPU        : Intel(R) Core(TM) i3-6100 CPU @ 3.70GHz
  8. GPU        : Intel(R) HD Graphics 530
  9. Resolution : 1366 x 768
  10. DPI        : 96
  11.  
  12. ------------------------ MediaInfo Source File ------------------------
  13.  
  14. C:\Users\Greentech\Videos\[HorribleSubs] Boruto - Naruto Next Generations - 108 [1080p].mkv
  15.  
  16. General
  17. Complete name           : C:\Users\Greentech\Videos\[HorribleSubs] Boruto - Naruto Next Generations - 108 [1080p].mkv
  18. Format                  : Matroska
  19. Format version          : Version 4 / Version 2
  20. File size               : 840 MiB
  21. Duration                : 23 min 54 s
  22. Overall bit rate        : 4 911 kb/s
  23. Encoded date            : UTC 2010-02-22 21:41:29
  24. Writing application     : no_variable_data
  25. Writing library         : no_variable_data
  26. Attachments             : OpenSans-Semibold.ttf
  27.  
  28. Video
  29. ID                      : 1
  30. Format                  : AVC
  31. Format/Info             : Advanced Video Codec
  32. Format profile          : High@L4
  33. Format settings         : CABAC / 4 Ref Frames
  34. Format, CABAC           : Yes
  35. Format, RefFrames       : 4 frames
  36. Codec ID                : V_MPEG4/ISO/AVC
  37. Duration                : 23 min 54 s
  38. Width                   : 1 920 pixels
  39. Height                  : 1 080 pixels
  40. Display aspect ratio    : 16:9
  41. Frame rate mode         : Constant
  42. Frame rate              : 23.976 (24000/1001) FPS
  43. Color space             : YUV
  44. Chroma subsampling      : 4:2:0
  45. Bit depth               : 8 bits
  46. Scan type               : Progressive
  47. Writing library         : x264 core 142
  48. Default                 : Yes
  49. Forced                  : No
  50. Statistics Tags Issue   : no_variable_data 1970-01-01 00:00:00 / no_variable_data 2010-02-22 21:41:29
  51. FromStats_BitRate       : 4779226
  52. FromStats_Duration      : 00:23:54.018000000
  53. FromStats_FrameCount    : 34382
  54. FromStats_StreamSize    : 856687078
  55.  
  56. Audio
  57. ID                      : 2
  58. Format                  : AAC
  59. Format/Info             : Advanced Audio Codec
  60. Format profile          : LC
  61. Codec ID                : A_AAC-2
  62. Duration                : 23 min 54 s
  63. Channel(s)              : 2 channels
  64. Channel positions       : Front: L R
  65. Sampling rate           : 44.1 kHz
  66. Frame rate              : 43.066 FPS (1024 SPF)
  67. Compression mode        : Lossy
  68. Delay relative to video : -83 ms
  69. Language                : Japanese
  70. Default                 : Yes
  71. Forced                  : No
  72. Statistics Tags Issue   : no_variable_data 1970-01-01 00:00:00 / no_variable_data 2010-02-22 21:41:29
  73. FromStats_BitRate       : 128000
  74. FromStats_Duration      : 00:23:54.134000000
  75. FromStats_FrameCount    : 61763
  76. FromStats_StreamSize    : 22946145
  77.  
  78. Text
  79. ID                      : 3
  80. Format                  : ASS
  81. Codec ID                : S_TEXT/ASS
  82. Codec ID/Info           : Advanced Sub Station Alpha
  83. Compression mode        : Lossless
  84. Language                : English
  85. Default                 : Yes
  86. Forced                  : No
  87. Statistics Tags Issue   : no_variable_data 1970-01-01 00:00:00 / no_variable_data 2010-02-22 21:41:29
  88. FromStats_BitRate       : 143
  89. FromStats_Duration      : 00:23:46.300000000
  90. FromStats_FrameCount    : 401
  91. FromStats_StreamSize    : 25578
  92.  
  93. ------------------ Demux MKV using mkvextract 15.0.0 ------------------
  94.  
  95. E:\Encodes\StaxRip-x64-1.7.0.0-stable\Apps\MKVToolNix\mkvextract.exe tracks "C:\Users\Greentech\Videos\[HorribleSubs] Boruto - Naruto Next Generations - 108 [1080p].mkv" 2:"C:\Users\Greentech\Videos\[HorribleSubs] ..._temp\[HorribleSubs] Boruto - Naruto Next Generations - 108 [1080p] ID3 English.ass" 1:"C:\Users\Greentech\Videos\[HorribleSubs] ..._temp\[HorribleSubs] Boruto - Naruto Next Generations - 108 [1080p] ID1 -83ms Japanese.aac" --ui-language en
  96.  
  97. Extracting track 1 with the CodecID 'A_AAC' to the file 'C:\Users\Greentech\Videos\[HorribleSubs] ..._temp\[HorribleSubs] Boruto - Naruto Next Generations - 108 [1080p] ID1 -83ms Japanese.aac'. Container format: raw AAC file with ADTS headers
  98. Extracting track 2 with the CodecID 'S_TEXT/ASS' to the file 'C:\Users\Greentech\Videos\[HorribleSubs] ..._temp\[HorribleSubs] Boruto - Naruto Next Generations - 108 [1080p] ID3 English.ass'. Container format: SSA/ASS text subtitles
  99.  
  100. Start:    4:15:55 PM
  101. End:      4:15:58 PM
  102. Duration: 00:00:02
  103.  
  104. General
  105. Complete name         : C:\Users\Greentech\Videos\[HorribleSubs] ..._temp\[HorribleSubs] Boruto - Naruto Next Generations - 108 [1080p] ID1 -83ms Japanese.aac
  106. Format                : ADTS
  107. Format/Info           : Audio Data Transport Stream
  108. File size             : 22.3 MiB
  109. Overall bit rate mode : Variable
  110.  
  111. Audio
  112. Format                : AAC
  113. Format/Info           : Advanced Audio Codec
  114. Format version        : Version 4
  115. Format profile        : LC
  116. Bit rate mode         : Variable
  117. Channel(s)            : 2 channels
  118. Channel positions     : Front: L R
  119. Sampling rate         : 44.1 kHz
  120. Frame rate            : 43.066 FPS (1024 SPF)
  121. Compression mode      : Lossy
  122. Stream size           : 22.3 MiB (100%)
  123.  
  124. ------------- Mux AAC to M4A using MP4Box 0.7.2-DEV-rev79 -------------
  125.  
  126. E:\Encodes\StaxRip-x64-1.7.0.0-stable\Apps\MP4Box\MP4Box.exe -add "C:\Users\Greentech\Videos\[HorribleSubs] ..._temp\[HorribleSubs] Boruto - Naruto Next Generations - 108 [1080p] ID1 -83ms Japanese.aac:name= " -new "C:\Users\Greentech\Videos\[HorribleSubs] ..._temp\[HorribleSubs] Boruto - Naruto Next Generations - 108 [1080p] ID1 -83ms Japanese.m4a"
  127.  
  128. AAC ADTS import  - sample rate 44100 - MPEG-4 audio - 2 channels
  129. Setting up iTunes/iPod file...
  130. Saving C:\Users\Greentech\Videos\[HorribleSubs] ..._temp\[HorribleSubs] Boruto - Naruto Next Generations - 108 [1080p] ID1 -83ms Japanese.m4a: 0.500 secs Interleaving
  131.  
  132. Start:    4:15:58 PM
  133. End:      4:15:59 PM
  134. Duration: 00:00:01
  135.  
  136.  
  137. General
  138. Complete name         : C:\Users\Greentech\Videos\[HorribleSubs] ..._temp\[HorribleSubs] Boruto - Naruto Next Generations - 108 [1080p] ID1 -83ms Japanese.m4a
  139. Format                : MPEG-4
  140. Format profile        : Apple audio with iTunes info
  141. Codec ID              : M4A  (isom/M4A /mp42)
  142. File size             : 22.1 MiB
  143. Duration              : 23 min 54 s
  144. Overall bit rate mode : Variable
  145. Overall bit rate      : 129 kb/s
  146. Encoded date          : UTC 2019-05-27 10:15:58
  147. Tagged date           : UTC 2019-05-27 10:15:58
  148.  
  149. Audio
  150. ID                    : 1
  151. Format                : AAC
  152. Format/Info           : Advanced Audio Codec
  153. Format profile        : LC
  154. Codec ID              : mp4a-40-2
  155. Duration              : 23 min 54 s
  156. Bit rate mode         : Variable
  157. Bit rate              : 128 kb/s
  158. Maximum bit rate      : 138 kb/s
  159. Channel(s)            : 2 channels
  160. Channel positions     : Front: L R
  161. Sampling rate         : 44.1 kHz
  162. Frame rate            : 43.066 FPS (1024 SPF)
  163. Compression mode      : Lossy
  164. Stream size           : 21.9 MiB (99%)
  165. Title                 :
  166. Encoded date          : UTC 2019-05-27 10:15:58
  167. Tagged date           : UTC 2019-05-27 10:15:59
  168.  
  169. -------------- Demux attachments using mkvextract 15.0.0 --------------
  170.  
  171. E:\Encodes\StaxRip-x64-1.7.0.0-stable\Apps\MKVToolNix\mkvextract.exe attachments "C:\Users\Greentech\Videos\[HorribleSubs] Boruto - Naruto Next Generations - 108 [1080p].mkv" 1:"C:\Users\Greentech\Videos\[HorribleSubs] ..._temp\_attachment_OpenSans-Semibold.ttf"
  172.  
  173. File 'C:\Users\Greentech\Videos\[HorribleSubs] Boruto - Naruto Next Generations - 108 [1080p].mkv': container: Matroska
  174. Track ID 0: video (MPEG-4p10/AVC/h.264)
  175. Track ID 1: audio (AAC)
  176. Track ID 2: subtitles (SubStationAlpha)
  177. Attachment ID 1: type 'application/x-truetype-font', size 221328 bytes, file name 'OpenSans-Semibold.ttf'
  178.  
  179. The attachment #1, ID 1, MIME type application/x-truetype-font, size 221328, is written to 'C:\Users\Greentech\Videos\[HorribleSubs] ..._temp\_attachment_OpenSans-Semibold.ttf'.
  180.  
  181. Start:    4:15:59 PM
  182. End:      4:16:00 PM
  183. Duration: 00:00:00
  184.  
  185. --------------------------- AviSynth Script ---------------------------
  186.  
  187. LoadPlugin("E:\Encodes\StaxRip-x64-1.7.0.0-stable\Apps\Plugins\both\ffms2\ffms2.dll")
  188. FFVideoSource("C:\Users\Greentech\Videos\[HorribleSubs] Boruto - Naruto Next Generations - 108 [1080p].mkv", colorspace = "YV12", \
  189.               cachefile = "C:\Users\Greentech\Videos\[HorribleSubs] ..._temp\[HorribleSubs] Boruto - Naruto Next Generations - 108 [1080p].ffindex")
  190. BicubicResize(1280, 720, 0, 0.5)
  191.  
  192. -------------------------- Script Properties --------------------------
  193.  
  194. Source Frame Count : 34382
  195. Source Frame Rate  : 23.976024
  196. Source Duration    : 00:23:54.0160000
  197. Target Frame Count : 34382
  198. Target Frame Rate  : 23.976024
  199. Target Duration    : 00:23:54.0160000
  200.  
  201. ----------------------- MediaInfo Audio Source 1 -----------------------
  202.  
  203. General
  204. Complete name         : C:\Users\Greentech\Videos\[HorribleSubs] ..._temp\[HorribleSubs] Boruto - Naruto Next Generations - 108 [1080p] ID1 -83ms Japanese.m4a
  205. Format                : MPEG-4
  206. Format profile        : Apple audio with iTunes info
  207. Codec ID              : M4A  (isom/M4A /mp42)
  208. File size             : 22.1 MiB
  209. Duration              : 23 min 54 s
  210. Overall bit rate mode : Variable
  211. Overall bit rate      : 129 kb/s
  212. Encoded date          : UTC 2019-05-27 10:15:58
  213. Tagged date           : UTC 2019-05-27 10:15:58
  214.  
  215. Audio
  216. ID                    : 1
  217. Format                : AAC
  218. Format/Info           : Advanced Audio Codec
  219. Format profile        : LC
  220. Codec ID              : mp4a-40-2
  221. Duration              : 23 min 54 s
  222. Bit rate mode         : Variable
  223. Bit rate              : 128 kb/s
  224. Maximum bit rate      : 138 kb/s
  225. Channel(s)            : 2 channels
  226. Channel positions     : Front: L R
  227. Sampling rate         : 44.1 kHz
  228. Frame rate            : 43.066 FPS (1024 SPF)
  229. Compression mode      : Lossy
  230. Stream size           : 21.9 MiB (99%)
  231. Title                 :
  232. Encoded date          : UTC 2019-05-27 10:15:58
  233. Tagged date           : UTC 2019-05-27 10:15:59
  234.  
  235. ------------------- Video encoding using x265 2.5+14 -------------------
  236.  
  237. E:\Encodes\StaxRip-x64-1.7.0.0-stable\Apps\avs2pipemod\avs2pipemod64.exe -y4mp "C:\Users\Greentech\Videos\[HorribleSubs] ..._temp\[HorribleSubs] Boruto - Naruto Next Generations - 108 [1080p]_new.avs" | E:\Encodes\StaxRip-x64-1.7.0.0-stable\Apps\x265\x265.exe --pass 1 --bitrate 960 --preset slow --no-slow-firstpass --deblock -1:-1 --frames 34382 --y4m --stats "C:\Users\Greentech\Videos\[HorribleSubs] ..._temp\[HorribleSubs] Boruto - Naruto Next Generations - 108 [1080p]_new.stats" --output NUL -
  238.  
  239. avs2pipemod[info]: writing 34382 frames of 24000/1001 fps, 1280x720,
  240. sar 0:0, YUV-420-planar-8bit progressive video.
  241. y4m  [info]: 1280x720 fps 24000/1001 i420p8 unknown frame count
  242. raw  [info]: output file: NUL
  243. x265 [info]: HEVC encoder version 2.5+14-2718cb5dd67f
  244. x265 [info]: build info [Windows][GCC 7.1.0][64 bit] 8bit+10bit+12bit
  245. x265 [info]: using cpu capabilities: MMX2 SSE2Fast LZCNT SSSE3 SSE4.2 AVX FMA3 BMI2 AVX2
  246. x265 [info]: Main profile, Level-3.1 (Main tier)
  247. x265 [info]: Thread pool created using 4 threads
  248. x265 [info]: Slices                              : 1
  249. x265 [info]: frame threads / pool features       : 2 / wpp(12 rows)
  250. x265 [info]: Coding QT: max CU size, min CU size : 64 / 8
  251. x265 [info]: Residual QT: max TU size, max depth : 32 / 1 inter / 1 intra
  252. x265 [info]: ME / range / subpel / merge         : dia / 57 / 2 / 1
  253. x265 [info]: Keyframe min / max / scenecut / bias: 23 / 250 / 40 / 5.00
  254. x265 [info]: Lookahead / bframes / badapt        : 25 / 4 / 2
  255. x265 [info]: b-pyramid / weightp / weightb       : 1 / 1 / 0
  256. x265 [info]: References / ref-limit  cu / depth  : 1 / on / on
  257. x265 [info]: AQ: mode / str / qg-size / cu-tree  : 1 / 1.0 / 32 / 1
  258. x265 [info]: Rate Control / qCompress            : ABR-960 kbps / 0.60
  259. x265 [info]: tools: limit-modes rd=2 psy-rd=2.00 rdoq=2 psy-rdoq=1.00
  260. x265 [info]: tools: early-skip rskip signhide tmvp fast-intra
  261. x265 [info]: tools: strong-intra-smoothing lslices=4 deblock(tC=-1:B=-1) sao
  262. x265 [info]: tools: stats-write
  263. avs2pipemod[info]: finished, wrote 34382 frames [100%].
  264. avs2pipemod[info]: total elapsed time is 1484.383 sec.
  265. x265 [info]: frame I:    307, Avg QP:13.48  kb/s: 11753.32
  266. x265 [info]: frame P:   9259, Avg QP:15.59  kb/s: 2780.88
  267. x265 [info]: frame B:  24816, Avg QP:22.69  kb/s: 186.63
  268. x265 [info]: Weighted P-Frames: Y:0.9% UV:0.7%
  269. x265 [info]: consecutive B-frames: 8.0% 7.5% 8.9% 68.5% 7.2%
  270. encoded 34382 frames in 1484.74s (23.16 fps), 988.54 kb/s, Avg QP:20.70
  271.  
  272. Start:    4:16:18 PM
  273. End:      4:41:03 PM
  274. Duration: 00:24:45
  275.  
  276. ------------- Video encoding second pass using x265 2.5+14 -------------
  277.  
  278. E:\Encodes\StaxRip-x64-1.7.0.0-stable\Apps\avs2pipemod\avs2pipemod64.exe -y4mp "C:\Users\Greentech\Videos\[HorribleSubs] ..._temp\[HorribleSubs] Boruto - Naruto Next Generations - 108 [1080p]_new.avs" | E:\Encodes\StaxRip-x64-1.7.0.0-stable\Apps\x265\x265.exe --pass 2 --bitrate 960 --preset slow --no-slow-firstpass --deblock -1:-1 --frames 34382 --y4m --stats "C:\Users\Greentech\Videos\[HorribleSubs] ..._temp\[HorribleSubs] Boruto - Naruto Next Generations - 108 [1080p]_new.stats" --output "C:\Users\Greentech\Videos\[HorribleSubs] ..._temp\[HorribleSubs] Boruto - Naruto Next Generations - 108 [1080p]_new_out.hevc" -
  279.  
  280. avs2pipemod[info]: writing 34382 frames of 24000/1001 fps, 1280x720,
  281. sar 0:0, YUV-420-planar-8bit progressive video.
  282. y4m  [info]: 1280x720 fps 24000/1001 i420p8 unknown frame count
  283. raw  [info]: output file: C:\Users\Greentech\Videos\[HorribleSubs] ..._temp\[HorribleSubs] Boruto - Naruto Next Generations - 108 [1080p]_new_out.hevc
  284. x265 [info]: HEVC encoder version 2.5+14-2718cb5dd67f
  285. x265 [info]: build info [Windows][GCC 7.1.0][64 bit] 8bit+10bit+12bit
  286. x265 [info]: using cpu capabilities: MMX2 SSE2Fast LZCNT SSSE3 SSE4.2 AVX FMA3 BMI2 AVX2
  287. x265 [info]: Main profile, Level-3.1 (Main tier)
  288. x265 [info]: Thread pool created using 4 threads
  289. x265 [info]: Slices                              : 1
  290. x265 [info]: frame threads / pool features       : 2 / wpp(12 rows)
  291. x265 [info]: Coding QT: max CU size, min CU size : 64 / 8
  292. x265 [info]: Residual QT: max TU size, max depth : 32 / 1 inter / 1 intra
  293. x265 [info]: ME / range / subpel / merge         : star / 57 / 3 / 3
  294. x265 [info]: Keyframe min / max / scenecut / bias: 23 / 250 / 40 / 5.00
  295. x265 [info]: Lookahead / bframes / badapt        : 25 / 4 / 2
  296. x265 [info]: b-pyramid / weightp / weightb       : 1 / 1 / 0
  297. x265 [info]: References / ref-limit  cu / depth  : 4 / on / on
  298. x265 [info]: AQ: mode / str / qg-size / cu-tree  : 1 / 1.0 / 32 / 1
  299. x265 [info]: Rate Control / qCompress            : ABR-960 kbps / 0.60
  300. x265 [info]: tools: rect limit-modes rd=4 psy-rd=2.00 rdoq=2 psy-rdoq=1.00
  301. x265 [info]: tools: rskip signhide tmvp strong-intra-smoothing lslices=4
  302. x265 [info]: tools: deblock(tC=-1:B=-1) sao stats-read
  303. avs2pipemod[info]: finished, wrote 34382 frames [100%].
  304. avs2pipemod[info]: total elapsed time is 3125.627 sec.
  305. x265 [info]: frame I:    307, Avg QP:12.18  kb/s: 13426.20
  306. x265 [info]: frame P:   9259, Avg QP:15.32  kb/s: 2555.08
  307. x265 [info]: frame B:  24816, Avg QP:22.56  kb/s: 212.24
  308. x265 [info]: Weighted P-Frames: Y:0.4% UV:0.3%
  309. x265 [info]: consecutive B-frames: 8.0% 7.5% 8.9% 68.5% 7.2%
  310. encoded 34382 frames in 3125.26s (11.00 fps), 961.15 kb/s, Avg QP:20.52
  311.  
  312. Start:    4:41:03 PM
  313. End:      5:33:11 PM
  314. Duration: 00:52:07
  315.  
  316. General
  317. Complete name        : C:\Users\Greentech\Videos\[HorribleSubs] ..._temp\[HorribleSubs] Boruto - Naruto Next Generations - 108 [1080p]_new_out.hevc
  318. Format               : HEVC
  319. Format/Info          : High Efficiency Video Coding
  320. File size            : 164 MiB
  321. Writing library      : x265 2.5+14-2718cb5dd67f:[Windows][GCC 7.1.0][64 bit] 8bit+10bit+12bit
  322.  
  323. Video
  324. Format               : HEVC
  325. Format/Info          : High Efficiency Video Coding
  326. Format profile       : Main@L3.1@Main
  327. Width                : 1 280 pixels
  328. Height               : 720 pixels
  329. Display aspect ratio : 16:9
  330. Frame rate           : 23.976 (24000/1001) FPS
  331. Color space          : YUV
  332. Chroma subsampling   : 4:2:0
  333. Bit depth            : 8 bits
  334. Writing library      : x265 2.5+14-2718cb5dd67f:[Windows][GCC 7.1.0][64 bit] 8bit+10bit+12bit
  335.  
  336. --------------------- Muxing using mkvmerge 15.0.0 ---------------------
  337.  
  338. E:\Encodes\StaxRip-x64-1.7.0.0-stable\Apps\MKVToolNix\mkvmerge.exe -o "C:\Users\Greentech\Videos\[HorribleSubs] Boruto - Naruto Next Generations - 108 [1080p]_new.mkv" "C:\Users\Greentech\Videos\[HorribleSubs] ..._temp\[HorribleSubs] Boruto - Naruto Next Generations - 108 [1080p]_new_out.hevc" --no-chapters --audio-tracks 0 --language 0:jpn --sync 0:-83 --default-track 0:0 --forced-track 0:0 "C:\Users\Greentech\Videos\[HorribleSubs] ..._temp\[HorribleSubs] Boruto - Naruto Next Generations - 108 [1080p] ID1 -83ms Japanese.m4a" --forced-track 0:0 --default-track 0:0 --language 0:eng "C:\Users\Greentech\Videos\[HorribleSubs] ..._temp\[HorribleSubs] Boruto - Naruto Next Generations - 108 [1080p] ID3 English.ass" --global-tags "C:\Users\Greentech\Videos\[HorribleSubs] ..._temp\[HorribleSubs] Boruto - Naruto Next Generations - 108 [1080p]_new_tags.xml" --ui-language en --attachment-name OpenSans-Semibold.ttf --attach-file "C:\Users\Greentech\Videos\[HorribleSubs] ..._temp\_attachment_OpenSans-Semibold.ttf"
  339.  
  340. mkvmerge v15.0.0 ('Duel with the Devil') 64-bit
  341. Automatic MIME type recognition for 'C:\Users\Greentech\Videos\[HorribleSubs] ..._temp\_attachment_OpenSans-Semibold.ttf': application/x-truetype-font
  342. 'C:\Users\Greentech\Videos\[HorribleSubs] ..._temp\[HorribleSubs] Boruto - Naruto Next Generations - 108 [1080p]_new_out.hevc': Using the demultiplexer for the format 'HEVC/h.265'.
  343. 'C:\Users\Greentech\Videos\[HorribleSubs] ..._temp\[HorribleSubs] Boruto - Naruto Next Generations - 108 [1080p] ID1 -83ms Japanese.m4a': Using the demultiplexer for the format 'QuickTime/MP4'.
  344. 'C:\Users\Greentech\Videos\[HorribleSubs] ..._temp\[HorribleSubs] Boruto - Naruto Next Generations - 108 [1080p] ID3 English.ass': Using the demultiplexer for the format 'SSA/ASS subtitles'.
  345. 'C:\Users\Greentech\Videos\[HorribleSubs] ..._temp\[HorribleSubs] Boruto - Naruto Next Generations - 108 [1080p]_new_out.hevc' track 0: Using the output module for the format 'HEVC/h.265 (unframed)'.
  346. 'C:\Users\Greentech\Videos\[HorribleSubs] ..._temp\[HorribleSubs] Boruto - Naruto Next Generations - 108 [1080p] ID1 -83ms Japanese.m4a' track 0: Using the output module for the format 'AAC'.
  347. 'C:\Users\Greentech\Videos\[HorribleSubs] ..._temp\[HorribleSubs] Boruto - Naruto Next Generations - 108 [1080p] ID3 English.ass' track 0: Using the output module for the format 'text subtitles'.
  348. The file 'C:\Users\Greentech\Videos\[HorribleSubs] Boruto - Naruto Next Generations - 108 [1080p]_new.mkv' has been opened for writing.
  349. The cue entries (the index) are being written...
  350. Multiplexing took 3 seconds.
  351.  
  352. Start:    5:33:12 PM
  353. End:      5:33:16 PM
  354. Duration: 00:00:03
  355.  
  356. General
  357. Complete name           : C:\Users\Greentech\Videos\[HorribleSubs] Boruto - Naruto Next Generations - 108 [1080p]_new.mkv
  358. Format                  : Matroska
  359. Format version          : Version 4 / Version 2
  360. File size               : 187 MiB
  361. Duration                : 23 min 54 s
  362. Overall bit rate        : 1 094 kb/s
  363. Encoded date            : UTC 2019-05-27 11:33:13
  364. Writing application     : mkvmerge v15.0.0 ('Duel with the Devil') 64-bit
  365. Writing library         : libebml v1.3.5 + libmatroska v1.4.5
  366. Attachments             : OpenSans-Semibold.ttf
  367. Writing frontend        : StaxRip v1.7.0.0
  368.  
  369. Video
  370. ID                      : 1
  371. Format                  : HEVC
  372. Format/Info             : High Efficiency Video Coding
  373. Format profile          : Main@L3.1@Main
  374. Codec ID                : V_MPEGH/ISO/HEVC
  375. Duration                : 23 min 54 s
  376. Bit rate                : 962 kb/s
  377. Width                   : 1 280 pixels
  378. Height                  : 720 pixels
  379. Display aspect ratio    : 16:9
  380. Frame rate mode         : Constant
  381. Frame rate              : 23.976 (24000/1001) FPS
  382. Color space             : YUV
  383. Chroma subsampling      : 4:2:0
  384. Bit depth               : 8 bits
  385. Bits/(Pixel*Frame)      : 0.044
  386. Stream size             : 164 MiB (88%)
  387. Writing library         : x265 2.5+14-2718cb5dd67f:[Windows][GCC 7.1.0][64 bit] 8bit+10bit+12bit
  388. Default                 : Yes
  389. Forced                  : No
  390.  
  391. Audio
  392. ID                      : 2
  393. Format                  : AAC
  394. Format/Info             : Advanced Audio Codec
  395. Format profile          : LC
  396. Codec ID                : A_AAC-2
  397. Duration                : 23 min 54 s
  398. Bit rate                : 128 kb/s
  399. Channel(s)              : 2 channels
  400. Channel positions       : Front: L R
  401. Sampling rate           : 44.1 kHz
  402. Frame rate              : 43.066 FPS (1024 SPF)
  403. Compression mode        : Lossy
  404. Delay relative to video : 10 ms
  405. Stream size             : 21.9 MiB (12%)
  406. Language                : Japanese
  407. Default                 : No
  408. Forced                  : No
  409.  
  410. Text
  411. ID                      : 3
  412. Format                  : ASS
  413. Codec ID                : S_TEXT/ASS
  414. Codec ID/Info           : Advanced Sub Station Alpha
  415. Duration                : 23 min 46 s
  416. Bit rate                : 143 b/s
  417. Count of elements       : 401
  418. Compression mode        : Lossless
  419. Stream size             : 25.0 KiB (0%)
  420. Language                : English
  421. Default                 : No
  422. Forced                  : No
  423.  
  424. ----------------------------- Job Complete -----------------------------
  425.  
  426. Start:    4:16:18 PM
  427. End:      5:33:16 PM
  428. Duration: 01:16:57
RAW Paste Data
We use cookies for various purposes including analytics. By continuing to use Pastebin, you agree to our use of cookies as described in the Cookies Policy. OK, I Understand
 
Top