daily pastebin goal
62%
SHARE
TWEET

Untitled

a guest Sep 30th, 2016 57 Never
Not a member of Pastebin yet? Sign Up, it unlocks many cool features!
  1. // Данный инструмент требует папки \samples\tremolo\stroke_up и \samples\tremolo\stroke_down
  2.  
  3. <control>
  4. default_path=samples\
  5.  
  6.  
  7.  
  8. // Удар вниз:
  9. <group> loop_mode=no_loop sw_lokey=B0 sw_hikey=B0 sw_last=B0 group=1 off_by=2 trigger=attack
  10.  
  11. <region> lokey=A1 hikey=B1 pitch_keycenter=A#1 transpose=-2 sample=one_note_open(stroke_down)\01_6_sd_00_5.wav //пониженные ноты
  12.  
  13. <region> key=C2 sample=one_note_open(stroke_down)\01_6_sd_00_5.wav //струна 6
  14. <region> key=C#2 sample=one_note_open(stroke_down)\01_6_sd_01_5.wav
  15. <region> key=D2 sample=one_note_open(stroke_down)\01_6_sd_02_5.wav
  16. <region> key=D#2 sample=one_note_open(stroke_down)\01_6_sd_03_5.wav
  17. <region> key=E2 sample=one_note_open(stroke_down)\01_6_sd_04_5.wav
  18. <region> key=F2 sample=one_note_open(stroke_down)\01_6_sd_05_5.wav
  19. <region> key=F#2 sample=one_note_open(stroke_down)\01_6_sd_06_5.wav
  20. <region> key=G2 sample=one_note_open(stroke_down)\01_6_sd_07_5.wav
  21. <region> key=G#2 sample=one_note_open(stroke_down)\01_5_sd_01_5.wav //струна 5
  22. <region> key=A2 sample=one_note_open(stroke_down)\01_5_sd_02_5.wav
  23. <region> key=A#2 sample=one_note_open(stroke_down)\01_5_sd_03_5.wav
  24. <region> key=B2 sample=one_note_open(stroke_down)\01_5_sd_04_5.wav
  25.  
  26. <region> key=C3 sample=one_note_open(stroke_down)\01_5_sd_05_5.wav
  27. <region> key=C#3 sample=one_note_open(stroke_down)\01_4_sd_01_5.wav //струна 4
  28. <region> key=D3 sample=one_note_open(stroke_down)\01_4_sd_02_5.wav
  29. <region> key=D#3 sample=one_note_open(stroke_down)\01_4_sd_03_5.wav
  30. <region> key=E3 sample=one_note_open(stroke_down)\01_4_sd_04_5.wav
  31. <region> key=F3 sample=one_note_open(stroke_down)\01_4_sd_05_5.wav
  32. <region> key=F#3 sample=one_note_open(stroke_down)\01_4_sd_06_5.wav
  33. <region> key=G3 sample=one_note_open(stroke_down)\01_4_sd_07_5.wav
  34. <region> key=G#3 sample=one_note_open(stroke_down)\01_3_sd_03_5.wav //струна 3
  35. <region> key=A3 sample=one_note_open(stroke_down)\01_3_sd_04_5.wav
  36. <region> key=A#3 sample=one_note_open(stroke_down)\01_3_sd_05_5.wav
  37. <region> key=B3 sample=one_note_open(stroke_down)\01_3_sd_06_5.wav
  38.  
  39. <region> key=C4 sample=one_note_open(stroke_down)\01_3_sd_07_5.wav
  40. <region> key=C#4 sample=one_note_open(stroke_down)\01_3_sd_08_5.wav
  41. <region> key=D4 sample=one_note_open(stroke_down)\01_3_sd_09_5.wav
  42. <region> key=D#4 sample=one_note_open(stroke_down)\01_3_sd_10_5.wav
  43. <region> key=E4 sample=one_note_open(stroke_down)\01_2_sd_07_5.wav //струна 2
  44. <region> key=F4 sample=one_note_open(stroke_down)\01_2_sd_08_5.wav
  45. <region> key=F#4 sample=one_note_open(stroke_down)\01_2_sd_09_5.wav
  46. <region> key=G4 sample=one_note_open(stroke_down)\01_2_sd_10_5.wav
  47. <region> key=G#4 sample=one_note_open(stroke_down)\01_2_sd_11_5.wav
  48. <region> key=A4 sample=one_note_open(stroke_down)\01_2_sd_12_5.wav
  49. <region> key=A#4 sample=one_note_open(stroke_down)\01_2_sd_13_5.wav
  50. <region> key=B4 sample=one_note_open(stroke_down)\01_2_sd_14_5.wav
  51.  
  52. <region> key=C5 sample=one_note_open(stroke_down)\01_1_sd_10_5.wav //струна 1
  53. <region> key=C#5 sample=one_note_open(stroke_down)\01_1_sd_11_5.wav
  54. <region> key=D5 sample=one_note_open(stroke_down)\01_1_sd_12_5.wav
  55. <region> key=D#5 sample=one_note_open(stroke_down)\01_1_sd_13_5.wav
  56. <region> key=E5 sample=one_note_open(stroke_down)\01_1_sd_14_5.wav
  57. <region> key=F5 sample=one_note_open(stroke_down)\01_1_sd_15_5.wav
  58. <region> key=F#5 sample=one_note_open(stroke_down)\01_1_sd_16_5.wav
  59. <region> key=G5 sample=one_note_open(stroke_down)\01_1_sd_17_5.wav
  60. <region> key=G#5 sample=one_note_open(stroke_down)\01_1_sd_18_5.wav
  61. <region> key=A5 sample=one_note_open(stroke_down)\01_1_sd_19_5.wav
  62. <region> key=A#5 sample=one_note_open(stroke_down)\01_1_sd_20_5.wav
  63. <region> key=B5 sample=one_note_open(stroke_down)\01_1_sd_21_5.wav
  64.  
  65. <region> key=C6 sample=one_note_open(stroke_down)\01_1_sd_22_5.wav
  66. <region> key=C#6 sample=one_note_open(stroke_down)\01_1_sd_23_5.wav
  67. <region> key=D6 sample=one_note_open(stroke_down)\01_1_sd_24_5.wav
  68.  
  69.  
  70.  
  71. // Удар вверх:
  72. <group> loop_mode=one_shot sw_lokey=B0 sw_hikey=B0 sw_last=B0 group=2 off_by=1 trigger=release
  73.  
  74. <region> lokey=A1 hikey=B1 pitch_keycenter=A#1 transpose=-2 sample=one_note_open(stroke_up)\01_6_su_00_5.wav //пониженные ноты
  75.  
  76. <region> key=C2 sample=one_note_open(stroke_up)\01_6_su_00_5.wav //струна 6
  77. <region> key=C#2 sample=one_note_open(stroke_up)\01_6_su_01_5.wav
  78. <region> key=D2 sample=one_note_open(stroke_up)\01_6_su_02_5.wav
  79. <region> key=D#2 sample=one_note_open(stroke_up)\01_6_su_03_5.wav
  80. <region> key=E2 sample=one_note_open(stroke_up)\01_6_su_04_5.wav
  81. <region> key=F2 sample=one_note_open(stroke_up)\01_6_su_05_5.wav
  82. <region> key=F#2 sample=one_note_open(stroke_up)\01_6_su_06_5.wav
  83. <region> key=G2 sample=one_note_open(stroke_up)\01_6_su_07_5.wav
  84. <region> key=G#2 sample=one_note_open(stroke_up)\01_5_su_01_5.wav //струна 5
  85. <region> key=A2 sample=one_note_open(stroke_up)\01_5_su_02_5.wav
  86. <region> key=A#2 sample=one_note_open(stroke_up)\01_5_su_03_5.wav
  87. <region> key=B2 sample=one_note_open(stroke_up)\01_5_su_04_5.wav
  88.  
  89. <region> key=C3 sample=one_note_open(stroke_up)\01_5_su_05_5.wav
  90. <region> key=C#3 sample=one_note_open(stroke_up)\01_4_su_01_5.wav //струна 4
  91. <region> key=D3 sample=one_note_open(stroke_up)\01_4_su_02_5.wav
  92. <region> key=D#3 sample=one_note_open(stroke_up)\01_4_su_03_5.wav
  93. <region> key=E3 sample=one_note_open(stroke_up)\01_4_su_04_5.wav
  94. <region> key=F3 sample=one_note_open(stroke_up)\01_4_su_05_5.wav
  95. <region> key=F#3 sample=one_note_open(stroke_up)\01_4_su_06_5.wav
  96. <region> key=G3 sample=one_note_open(stroke_up)\01_4_su_07_5.wav
  97. <region> key=G#3 sample=one_note_open(stroke_up)\01_3_su_03_5.wav //струна 3
  98. <region> key=A3 sample=one_note_open(stroke_up)\01_3_su_04_5.wav
  99. <region> key=A#3 sample=one_note_open(stroke_up)\01_3_su_05_5.wav
  100. <region> key=B3 sample=one_note_open(stroke_up)\01_3_su_06_5.wav
  101.  
  102. <region> key=C4 sample=one_note_open(stroke_up)\01_3_su_07_5.wav
  103. <region> key=C#4 sample=one_note_open(stroke_up)\01_3_su_08_5.wav
  104. <region> key=D4 sample=one_note_open(stroke_up)\01_3_su_09_5.wav
  105. <region> key=D#4 sample=one_note_open(stroke_up)\01_3_su_10_5.wav
  106. <region> key=E4 sample=one_note_open(stroke_up)\01_2_su_07_5.wav //струна 2
  107. <region> key=F4 sample=one_note_open(stroke_up)\01_2_su_08_5.wav
  108. <region> key=F#4 sample=one_note_open(stroke_up)\01_2_su_09_5.wav
  109. <region> key=G4 sample=one_note_open(stroke_up)\01_2_su_10_5.wav
  110. <region> key=G#4 sample=one_note_open(stroke_up)\01_2_su_11_5.wav
  111. <region> key=A4 sample=one_note_open(stroke_up)\01_2_su_12_5.wav
  112. <region> key=A#4 sample=one_note_open(stroke_up)\01_2_su_13_5.wav
  113. <region> key=B4 sample=one_note_open(stroke_up)\01_2_su_14_5.wav
  114.  
  115. <region> key=C5 sample=one_note_open(stroke_up)\01_1_su_10_5.wav //струна 1
  116. <region> key=C#5 sample=one_note_open(stroke_up)\01_1_su_11_5.wav
  117. <region> key=D5 sample=one_note_open(stroke_up)\01_1_su_12_5.wav
  118. <region> key=D#5 sample=one_note_open(stroke_up)\01_1_su_13_5.wav
  119. <region> key=E5 sample=one_note_open(stroke_up)\01_1_su_14_5.wav
  120. <region> key=F5 sample=one_note_open(stroke_up)\01_1_su_15_5.wav
  121. <region> key=F#5 sample=one_note_open(stroke_up)\01_1_su_16_5.wav
  122. <region> key=G5 sample=one_note_open(stroke_up)\01_1_su_17_5.wav
  123. <region> key=G#5 sample=one_note_open(stroke_up)\01_1_su_18_5.wav
  124. <region> key=A5 sample=one_note_open(stroke_up)\01_1_su_19_5.wav
  125. <region> key=A#5 sample=one_note_open(stroke_up)\01_1_su_20_5.wav
  126. <region> key=B5 sample=one_note_open(stroke_up)\01_1_su_21_5.wav
  127.  
  128. <region> key=C6 sample=one_note_open(stroke_up)\01_1_su_22_5.wav
  129. <region> key=C#6 sample=one_note_open(stroke_up)\01_1_su_23_5.wav
  130. <region> key=D6 sample=one_note_open(stroke_up)\01_1_su_24_5.wav
RAW Paste Data
Top