SHARE
TWEET

To.Live.And.Die.In.L.A.1985.REMASTERED.1080p.BluRay.REMUX.AVC.DTS-HD.MA.5.1-EPSiLON

a guest Jun 15th, 2019 34 Never
Not a member of Pastebin yet? Sign Up, it unlocks many cool features!
  1. General
  2. Unique ID                                : 173646506215107139003344391103675010266 (0x82A319C14D117351DF9AD8F4D0668CDA)
  3. Complete name                            : To.Live.And.Die.In.L.A.1985.REMASTERED.1080p.BluRay.REMUX.AVC.DTS-HD.MA.5.1-EPSiLON.mkv
  4. Format                                   : Matroska
  5. Format version                           : Version 4
  6. File size                                : 32.6 GiB
  7. Duration                                 : 1 h 55 min
  8. Overall bit rate mode                    : Variable
  9. Overall bit rate                         : 40.4 Mb/s
  10. Encoded date                             : UTC 2016-11-23 02:28:37
  11. Writing application                      : mkvmerge v9.4.2 ('So High') 64bit
  12. Writing library                          : libebml v1.3.4 + libmatroska v1.4.5
  13.  
  14. Video
  15. ID                                       : 1
  16. Format                                   : AVC
  17. Format/Info                              : Advanced Video Codec
  18. Format profile                           : High@L4.1
  19. Format settings                          : CABAC / 3 Ref Frames
  20. Format settings, CABAC                   : Yes
  21. Format settings, Reference frames        : 3 frames
  22. Codec ID                                 : V_MPEG4/ISO/AVC
  23. Duration                                 : 1 h 55 min
  24. Bit rate mode                            : Variable
  25. Bit rate                                 : 38.0 Mb/s
  26. Maximum bit rate                         : 40.0 Mb/s
  27. Width                                    : 1 920 pixels
  28. Height                                   : 1 080 pixels
  29. Display aspect ratio                     : 16:9
  30. Frame rate mode                          : Constant
  31. Frame rate                               : 23.976 (24000/1001) FPS
  32. Color space                              : YUV
  33. Chroma subsampling                       : 4:2:0
  34. Bit depth                                : 8 bits
  35. Scan type                                : Progressive
  36. Bits/(Pixel*Frame)                       : 0.764
  37. Stream size                              : 30.7 GiB (94%)
  38. Title                                    : MPEG-4 AVC Video / 37969 kbps / 1080p / 23.976 fps / 16:9 / High Profile 4.1
  39. Writing library                          : x264 core 128 r2216 198a7ea
  40. Encoding settings                        : cabac=1 / ref=4 / deblock=0:-1:-1 / analyse=0x3:0x133 / me=umh / subme=10 / psy=1 / psy_rd=1.00:0.15 / mixed_ref=1 / me_range=24 / chroma_me=1 / trellis=2 / 8x8dct=1 / cqm=0 / deadzone=0,0 / fast_pskip=1 / chroma_qp_offset=-3 / threads=12 / lookahead_threads=2 / sliced_threads=0 / slices=4 / nr=0 / decimate=1 / interlaced=0 / bluray_compat=1 / constrained_intra=0 / bframes=3 / b_pyramid=1 / b_adapt=2 / b_bias=0 / direct=3 / weightb=1 / open_gop=1 / weightp=1 / keyint=24 / keyint_min=1 / scenecut=40 / intra_refresh=0 / rc_lookahead=24 / rc=2pass / mbtree=0 / bitrate=38000 / ratetol=1.0 / qcomp=0.00 / qpmin=0 / qpmax=69 / qpstep=4 / cplxblur=20.0 / qblur=0.5 / vbv_maxrate=40000 / vbv_bufsize=30000 / nal_hrd=vbr / ip_ratio=1.40 / pb_ratio=1.30 / aq=1:0.30
  41. Language                                 : English
  42. Default                                  : Yes
  43. Forced                                   : No
  44. Color range                              : Limited
  45. Color primaries                          : BT.709
  46. Transfer characteristics                 : BT.709
  47. Matrix coefficients                      : BT.709
  48.  
  49. Audio #1
  50. ID                                       : 2
  51. Format                                   : DTS XLL
  52. Format/Info                              : Digital Theater Systems
  53. Commercial name                          : DTS-HD Master Audio
  54. Codec ID                                 : A_DTS
  55. Duration                                 : 1 h 55 min
  56. Bit rate mode                            : Variable
  57. Bit rate                                 : 2 202 kb/s
  58. Channel(s)                               : 6 channels
  59. Channel layout                           : C L R Ls Rs LFE
  60. Sampling rate                            : 48.0 kHz
  61. Frame rate                               : 93.750 FPS (512 SPF)
  62. Bit depth                                : 24 bits
  63. Compression mode                         : Lossless
  64. Stream size                              : 1.78 GiB (5%)
  65. Title                                    : DTS-HD Master Audio / 5.1 / 48 kHz / 2202 kbps / 24-bit
  66. Language                                 : English
  67. Default                                  : Yes
  68. Forced                                   : No
  69.  
  70. Audio #2
  71. ID                                       : 3
  72. Format                                   : AC-3
  73. Format/Info                              : Audio Coding 3
  74. Commercial name                          : Dolby Digital
  75. Codec ID                                 : A_AC3
  76. Duration                                 : 1 h 55 min
  77. Bit rate mode                            : Constant
  78. Bit rate                                 : 192 kb/s
  79. Channel(s)                               : 2 channels
  80. Channel layout                           : L R
  81. Sampling rate                            : 48.0 kHz
  82. Frame rate                               : 31.250 FPS (1536 SPF)
  83. Bit depth                                : 16 bits
  84. Compression mode                         : Lossy
  85. Stream size                              : 159 MiB (0%)
  86. Title                                    : Commentary with Director William Friedkin / Dolby Digital Audio / 2.0 / 48 kHz / 192 kbps
  87. Language                                 : English
  88. Service kind                             : Complete Main
  89. Default                                  : No
  90. Forced                                   : No
  91.  
  92. Text
  93. ID                                       : 4
  94. Format                                   : PGS
  95. Codec ID                                 : S_HDMV/PGS
  96. Codec ID/Info                            : Picture based subtitle format used on BDs/HD-DVDs
  97. Duration                                 : 1 h 55 min
  98. Bit rate                                 : 29.6 kb/s
  99. Count of elements                        : 2360
  100. Stream size                              : 24.4 MiB (0%)
  101. Title                                    : SDH
  102. Language                                 : English
  103. Default                                  : No
  104. Forced                                   : No
  105.  
  106. Menu
  107. 00:00:00.000                             : en: Chapter 1
  108. 00:09:49.631                             : en: Chapter 2
  109. 00:19:49.313                             : en: Chapter 3
  110. 00:29:54.042                             : en: Chapter 4
  111. 00:39:05.510                             : en: Chapter 5
  112. 00:47:49.492                             : en: Chapter 6
  113. 00:58:52.779                             : en: Chapter 7
  114. 01:08:27.270                             : en: Chapter 8
  115. 01:15:35.865                             : en: Chapter 9
  116. 01:29:24.609                             : en: Chapter 10
  117. 01:40:12.298                             : en: Chapter 11
  118. 01:45:04.924                             : en: Chapter 12
RAW Paste Data
We use cookies for various purposes including analytics. By continuing to use Pastebin, you agree to our use of cookies as described in the Cookies Policy. OK, I Understand
 
Top