Guest User

Untitled

a guest
Jan 6th, 2021
34
Never
Not a member of Pastebin yet? Sign Up, it unlocks many cool features!
  1. General
  2. Unique ID : 22596022943799465350867271551426428727 (0x10FFD5F1D24A4F33CCC5A3B75CEAFF37)
  3. Complete name : E:\VideoFirst\Freaky.2020.AMZN.WEB-DL.1080p.seleZen.mkv
  4. Format : Matroska
  5. Format version : Version 4
  6. File size : 7.31 GiB
  7. Duration : 1 h 42 min
  8. Overall bit rate : 10.2 Mb/s
  9. Movie name : Freaky 2020 from seleZen
  10. Encoded date : UTC 2021-01-06 19:08:02
  11. Writing application : mkvmerge v40.0.0 ('Old Town Road + Pony') 64-bit
  12. Writing library : libebml v1.3.9 + libmatroska v1.5.2
  13.  
  14. Video
  15. ID : 1
  16. Format : AVC
  17. Format/Info : Advanced Video Codec
  18. Format profile : High@L4
  19. Format settings : CABAC / 4 Ref Frames
  20. Format settings, CABAC : Yes
  21. Format settings, Reference : 4 frames
  22. Codec ID : V_MPEG4/ISO/AVC
  23. Duration : 1 h 42 min
  24. Bit rate mode : Constant
  25. Bit rate : 9 221 kb/s
  26. Nominal bit rate : 10 000 kb/s
  27. Width : 1 920 pixels
  28. Height : 800 pixels
  29. Display aspect ratio : 2.40:1
  30. Frame rate mode : Constant
  31. Frame rate : 23.976 (24000/1001) FPS
  32. Color space : YUV
  33. Chroma subsampling : 4:2:0
  34. Bit depth : 8 bits
  35. Scan type : Progressive
  36. Bits/(Pixel*Frame) : 0.250
  37. Stream size : 6.57 GiB (90%)
  38. Language : English
  39. Default : Yes
  40. Forced : No
  41. Color range : Limited
  42. Color primaries : BT.709
  43. Transfer characteristics : BT.709
  44. Matrix coefficients : BT.709
  45.  
  46. Audio #1
  47. ID : 2
  48. Format : AC-3
  49. Format/Info : Audio Coding 3
  50. Commercial name : Dolby Digital
  51. Codec ID : A_AC3
  52. Duration : 1 h 42 min
  53. Bit rate mode : Constant
  54. Bit rate : 384 kb/s
  55. Channel(s) : 6 channels
  56. Channel layout : L R C LFE Ls Rs
  57. Sampling rate : 48.0 kHz
  58. Frame rate : 31.250 FPS (1536 SPF)
  59. Compression mode : Lossy
  60. Stream size : 280 MiB (4%)
  61. Title : iTunes
  62. Language : Russian
  63. Service kind : Complete Main
  64. Default : Yes
  65. Forced : Yes
  66.  
  67. Audio #2
  68. ID : 3
  69. Format : E-AC-3
  70. Format/Info : Enhanced AC-3
  71. Commercial name : Dolby Digital Plus
  72. Codec ID : A_EAC3
  73. Duration : 1 h 42 min
  74. Bit rate mode : Constant
  75. Bit rate : 640 kb/s
  76. Channel(s) : 6 channels
  77. Channel layout : L R C LFE Ls Rs
  78. Sampling rate : 48.0 kHz
  79. Frame rate : 31.250 FPS (1536 SPF)
  80. Compression mode : Lossy
  81. Stream size : 467 MiB (6%)
  82. Title : Original
  83. Language : English
  84. Service kind : Complete Main
  85. Default : No
  86. Forced : No
  87.  
  88. Text #1
  89. ID : 4
  90. Format : UTF-8
  91. Codec ID : S_TEXT/UTF8
  92. Codec ID/Info : UTF-8 Plain Text
  93. Duration : 29 min 12 s
  94. Bit rate : 1 b/s
  95. Count of elements : 7
  96. Stream size : 402 Bytes (0%)
  97. Title : Forced
  98. Language : Russian
  99. Default : Yes
  100. Forced : Yes
  101.  
  102. Text #2
  103. ID : 5
  104. Format : UTF-8
  105. Codec ID : S_TEXT/UTF8
  106. Codec ID/Info : UTF-8 Plain Text
  107. Duration : 1 h 41 min
  108. Bit rate : 75 b/s
  109. Count of elements : 1182
  110. Stream size : 56.1 KiB (0%)
  111. Title : Full v.1
  112. Language : Russian
  113. Default : No
  114. Forced : No
  115.  
  116. Text #3
  117. ID : 6
  118. Format : UTF-8
  119. Codec ID : S_TEXT/UTF8
  120. Codec ID/Info : UTF-8 Plain Text
  121. Duration : 1 h 35 min
  122. Bit rate : 89 b/s
  123. Count of elements : 1282
  124. Stream size : 62.1 KiB (0%)
  125. Title : Full v.2
  126. Language : Russian
  127. Default : No
  128. Forced : No
  129.  
  130. Text #4
  131. ID : 7
  132. Format : UTF-8
  133. Codec ID : S_TEXT/UTF8
  134. Codec ID/Info : UTF-8 Plain Text
  135. Duration : 1 h 42 min
  136. Bit rate : 63 b/s
  137. Count of elements : 1822
  138. Stream size : 47.3 KiB (0%)
  139. Title : SDH
  140. Language : English
  141. Default : No
  142. Forced : No
  143.  
  144.  
RAW Paste Data