Secasa

Untitled

Jul 15th, 2015
32
Never
Not a member of Pastebin yet? Sign Up, it unlocks many cool features!
  1. Format : Matroska
  2. Format version : Version 4 / Version 2
  3. File size : 4.43 GiB
  4. Duration : 2h 8mn
  5. Overall bit rate : 4 940 Kbps
  6. Encoded date : UTC 2015-07-15 00:26:46
  7. Writing application : mkvmerge v7.5.0 ('Glass Culture') 32bit built on Jan 4 2015 16:37:25
  8. Writing library : libebml v1.3.1 + libmatroska v1.4.2
  9. DURATION : 01:59:20.268000000
  10. NUMBER_OF_FRAMES : 1612
  11. NUMBER_OF_BYTES : 61179
  12. _STATISTICS_WRITING_APP : mkvmerge v7.5.0 ('Glass Culture') 32bit built on Jan 4 2015 16:37:25
  13. _STATISTICS_WRITING_DATE_UTC : 2015-07-15 00:26:46
  14. _STATISTICS_TAGS : BPS DURATION NUMBER_OF_FRAMES NUMBER_OF_BYTES
  15.  
  16. Video
  17. ID : 1
  18. Format : AVC
  19. Format/Info : Advanced Video Codec
  20. Format profile : High@L4.1
  21. Format settings, CABAC : Yes
  22. Format settings, ReFrames : 4 frames
  23. Codec ID : V_MPEG4/ISO/AVC
  24. Duration : 2h 8mn
  25. Bit rate : 4 199 Kbps
  26. Width : 1 920 pixels
  27. Height : 800 pixels
  28. Display aspect ratio : 2.40:1
  29. Frame rate mode : Constant
  30. Frame rate : 23.976 fps
  31. Color space : YUV
  32. Chroma subsampling : 4:2:0
  33. Bit depth : 8 bits
  34. Scan type : Progressive
  35. Bits/(Pixel*Frame) : 0.114
  36. Stream size : 3.65 GiB (82%)
  37. Writing library : x264 core 142 r2479 dd79a61
  38. Encoding settings : cabac=1 / ref=2 / deblock=1:-1:-1 / analyse=0x3:0x113 / me=hex / subme=6 / psy=1 / psy_rd=1.00:0.15 / mixed_ref=1 / me_range=16 / chroma_me=1 / trellis=1 / 8x8dct=1 / cqm=0 / deadzone=21,11 / fast_pskip=1 / chroma_qp_offset=-3 / threads=36 / lookahead_threads=6 / sliced_threads=0 / nr=0 / decimate=1 / interlaced=0 / bluray_compat=0 / constrained_intra=0 / bframes=3 / b_pyramid=2 / b_adapt=1 / b_bias=0 / direct=1 / weightb=1 / open_gop=0 / weightp=1 / keyint=240 / keyint_min=24 / scenecut=40 / intra_refresh=0 / rc_lookahead=30 / rc=abr / mbtree=1 / bitrate=4199 / ratetol=1.0 / qcomp=0.60 / qpmin=0 / qpmax=69 / qpstep=4 / vbv_maxrate=62500 / vbv_bufsize=78125 / nal_hrd=none / filler=0 / ip_ratio=1.40 / aq=1:1.00
  39. Default : Yes
  40. Forced : No
  41. DURATION : 02:08:15.647000000
  42. NUMBER_OF_FRAMES : 184511
  43. NUMBER_OF_BYTES : 4011186501
  44. _STATISTICS_WRITING_APP : mkvmerge v7.5.0 ('Glass Culture') 32bit built on Jan 4 2015 16:37:25
  45. _STATISTICS_WRITING_DATE_UTC : 2015-07-15 00:26:46
  46. _STATISTICS_TAGS : BPS DURATION NUMBER_OF_FRAMES NUMBER_OF_BYTES
  47. Color primaries : BT.709
  48. Transfer characteristics : BT.709
  49. Matrix coefficients : BT.709
  50.  
  51. Audio #1
  52. ID : 2
  53. Format : AC-3
  54. Format/Info : Audio Coding 3
  55. Mode extension : CM (complete main)
  56. Format settings, Endianness : Big
  57. Codec ID : A_AC3
  58. Duration : 2h 8mn
  59. Bit rate mode : Constant
  60. Bit rate : 384 Kbps
  61. Channel count : 6 channels
  62. Channel positions : Front: L C R, Side: L R, LFE
  63. Sampling rate : 48.0 KHz
  64. Bit depth : 16 bits
  65. Compression mode : Lossy
  66. Delay relative to video : -83ms
  67. Stream size : 352 MiB (8%)
  68. Language : Spanish
  69. Default : Yes
  70. Forced : Yes
  71.  
  72. Audio #2
  73. ID : 3
  74. Format : AC-3
  75. Format/Info : Audio Coding 3
  76. Mode extension : CM (complete main)
  77. Format settings, Endianness : Big
  78. Codec ID : A_AC3
  79. Duration : 2h 8mn
  80. Bit rate mode : Constant
  81. Bit rate : 384 Kbps
  82. Channel count : 6 channels
  83. Channel positions : Front: L C R, Side: L R, LFE
  84. Sampling rate : 48.0 KHz
  85. Bit depth : 16 bits
  86. Compression mode : Lossy
  87. Delay relative to video : -83ms
  88. Stream size : 352 MiB (8%)
  89. Language : English
  90. Default : No
  91. Forced : No
  92.  
  93. Text #1
  94. ID : 4
  95. Format : UTF-8
  96. Codec ID : S_TEXT/UTF8
  97. Codec ID/Info : UTF-8 Plain Text
  98. Language : Spanish
  99. Default : No
  100. Forced : No
  101.  
  102. Text #2
  103. ID : 5
  104. Format : UTF-8
  105. Codec ID : S_TEXT/UTF8
  106. Codec ID/Info : UTF-8 Plain Text
  107. Language : English
  108. Default : No
  109. Forced : No
  110.  
  111. Menu
  112. 00:00:00.000 : en:Chapter 1
  113. 00:09:19.392 : en:Chapter 2
  114. 00:13:34.272 : en:Chapter 3
  115. 00:17:25.544 : en:Chapter 4
  116. 00:25:48.547 : en:Chapter 5
  117. 00:32:36.913 : en:Chapter 6
  118. 00:45:28.601 : en:Chapter 7
  119. 00:56:27.134 : en:Chapter 8
  120. 01:10:35.398 : en:Chapter 9
  121. 01:19:50.244 : en:Chapter 10
  122. 01:25:43.555 : en:Chapter 11
  123. 01:33:33.358 : en:Chapter 12
  124. 01:41:50.438 : en:Chapter 13
  125. 01:48:56.780 : en:Chapter 14
  126. 01:53:34.516 : en:Chapter 15
  127. 01:59:54.145 : en:Chapter 16
RAW Paste Data