Guest User

Untitled

a guest
Nov 24th, 2021
126
Never
Not a member of Pastebin yet? Sign Up, it unlocks many cool features!
  1. General
  2. Unique ID : 24886371503180860362749703400979053084 (0x12B8F0D8D39F5B2F437E715FC72A3A1C)
  3. Complete name : E:\Video\Hitman.s.Wife.s.Bodyguard.2021.BDREMUX.2160p.HDR.DVP8.seleZen.mkv
  4. Format : Matroska
  5. Format version : Version 4
  6. File size : 64.6 GiB
  7. Duration : 1 h 57 min
  8. Overall bit rate mode : Variable
  9. Overall bit rate : 79.0 Mb/s
  10. Movie name : Hitman's Wife's Bodyguard 2021 from селезень
  11. Encoded date : UTC 2021-07-24 11:33:57
  12. Writing application : mkvmerge v59.0.0 ('Shining Star') 64-bit
  13. Writing library : libebml v1.4.2 + libmatroska v1.6.4
  14.  
  15. Video
  16. ID : 1
  17. ID in the original source medium : 4117 (0x1015)
  18. Format : HEVC
  19. Format/Info : High Efficiency Video Coding
  20. Format profile : Main 10@L5.1@High
  21. HDR format : Dolby Vision, Version 1.0, dvhe.08.06, BL+RPU, Blu-ray compatible / SMPTE ST 2086, HDR10 compatible
  22. Codec ID : V_MPEGH/ISO/HEVC
  23. Duration : 1 h 57 min
  24. Bit rate : 74.3 Mb/s
  25. Width : 3 840 pixels
  26. Height : 2 160 pixels
  27. Display aspect ratio : 16:9
  28. Frame rate mode : Constant
  29. Frame rate : 23.976 (24000/1001) FPS
  30. Color space : YUV
  31. Chroma subsampling : 4:2:0 (Type 2)
  32. Bit depth : 10 bits
  33. Bits/(Pixel*Frame) : 0.373
  34. Stream size : 60.7 GiB (94%)
  35. Language : English
  36. Default : No
  37. Forced : No
  38. Color range : Limited
  39. Color primaries : BT.2020
  40. Transfer characteristics : PQ
  41. Matrix coefficients : BT.2020 non-constant
  42. Mastering display color primaries : Display P3
  43. Mastering display luminance : min: 0.0050 cd/m2, max: 4000 cd/m2
  44. Maximum Content Light Level : 1000 cd/m2
  45. Maximum Frame-Average Light Level : 711 cd/m2
  46. Original source medium : Blu-ray
  47.  
  48. Audio #1
  49. ID : 2
  50. Format : AC-3
  51. Format/Info : Audio Coding 3
  52. Commercial name : Dolby Digital
  53. Codec ID : A_AC3
  54. Duration : 1 h 56 min
  55. Bit rate mode : Constant
  56. Bit rate : 384 kb/s
  57. Channel(s) : 6 channels
  58. Channel layout : L R C LFE Ls Rs
  59. Sampling rate : 48.0 kHz
  60. Frame rate : 31.250 FPS (1536 SPF)
  61. Compression mode : Lossy
  62. Stream size : 320 MiB (0%)
  63. Title : Dub
  64. Language : Russian
  65. Service kind : Complete Main
  66. Default : Yes
  67. Forced : Yes
  68.  
  69. Audio #2
  70. ID : 3
  71. Format : AC-3
  72. Format/Info : Audio Coding 3
  73. Commercial name : Dolby Digital
  74. Codec ID : A_AC3
  75. Duration : 1 h 56 min
  76. Bit rate mode : Constant
  77. Bit rate : 448 kb/s
  78. Channel(s) : 6 channels
  79. Channel layout : L R C LFE Ls Rs
  80. Sampling rate : 48.0 kHz
  81. Frame rate : 31.250 FPS (1536 SPF)
  82. Compression mode : Lossy
  83. Stream size : 374 MiB (1%)
  84. Title : AVO [М. Чадов +18]
  85. Language : Russian
  86. Service kind : Complete Main
  87. Default : No
  88. Forced : No
  89.  
  90. Audio #3
  91. ID : 4
  92. Format : AC-3
  93. Format/Info : Audio Coding 3
  94. Commercial name : Dolby Digital
  95. Codec ID : A_AC3
  96. Duration : 1 h 56 min
  97. Bit rate mode : Constant
  98. Bit rate : 448 kb/s
  99. Channel(s) : 6 channels
  100. Channel layout : L R C LFE Ls Rs
  101. Sampling rate : 48.0 kHz
  102. Frame rate : 31.250 FPS (1536 SPF)
  103. Compression mode : Lossy
  104. Stream size : 374 MiB (1%)
  105. Title : AVO [Ю. Немахов]
  106. Language : Russian
  107. Service kind : Complete Main
  108. Default : No
  109. Forced : No
  110.  
  111. Audio #4
  112. ID : 5
  113. Format : AC-3
  114. Format/Info : Audio Coding 3
  115. Commercial name : Dolby Digital
  116. Codec ID : A_AC3
  117. Duration : 1 h 56 min
  118. Bit rate mode : Constant
  119. Bit rate : 448 kb/s
  120. Channel(s) : 6 channels
  121. Channel layout : L R C LFE Ls Rs
  122. Sampling rate : 48.0 kHz
  123. Frame rate : 31.250 FPS (1536 SPF)
  124. Compression mode : Lossy
  125. Stream size : 374 MiB (1%)
  126. Title : Dub
  127. Language : Ukrainian
  128. Service kind : Complete Main
  129. Default : No
  130. Forced : No
  131.  
  132. Audio #5
  133. ID : 6
  134. Format : MLP FBA
  135. Format/Info : Meridian Lossless Packing FBA
  136. Commercial name : Dolby TrueHD
  137. Codec ID : A_TRUEHD
  138. Duration : 1 h 56 min
  139. Bit rate mode : Variable
  140. Bit rate : 2 317 kb/s
  141. Maximum bit rate : 4 011 kb/s
  142. Channel(s) : 8 channels
  143. Channel layout : L R C LFE Ls Rs Lb Rb
  144. Sampling rate : 48.0 kHz
  145. Frame rate : 1 200.000 FPS (40 SPF)
  146. Compression mode : Lossless
  147. Stream size : 1.89 GiB (3%)
  148. Title : Original
  149. Language : English
  150. Default : No
  151. Forced : No
  152.  
  153. Audio #6
  154. ID : 7
  155. Format : AC-3
  156. Format/Info : Audio Coding 3
  157. Commercial name : Dolby Digital
  158. Codec ID : A_AC3
  159. Duration : 1 h 56 min
  160. Bit rate mode : Constant
  161. Bit rate : 640 kb/s
  162. Channel(s) : 6 channels
  163. Channel layout : L R C LFE Ls Rs
  164. Sampling rate : 48.0 kHz
  165. Frame rate : 31.250 FPS (1536 SPF)
  166. Compression mode : Lossy
  167. Stream size : 534 MiB (1%)
  168. Language : English
  169. Service kind : Complete Main
  170. Default : No
  171. Forced : No
  172.  
  173. Text #1
  174. ID : 8
  175. Format : UTF-8
  176. Codec ID : S_TEXT/UTF8
  177. Codec ID/Info : UTF-8 Plain Text
  178. Duration : 1 h 31 min
  179. Bit rate : 0 b/s
  180. Count of elements : 4
  181. Stream size : 112 Bytes (0%)
  182. Title : Forced
  183. Language : Russian
  184. Default : Yes
  185. Forced : Yes
  186.  
  187. Text #2
  188. ID : 9
  189. Format : UTF-8
  190. Codec ID : S_TEXT/UTF8
  191. Codec ID/Info : UTF-8 Plain Text
  192. Duration : 1 h 49 min
  193. Bit rate : 125 b/s
  194. Count of elements : 1952
  195. Stream size : 100 KiB (0%)
  196. Title : Full
  197. Language : Russian
  198. Default : No
  199. Forced : No
  200.  
  201. Text #3
  202. ID : 10
  203. Format : UTF-8
  204. Codec ID : S_TEXT/UTF8
  205. Codec ID/Info : UTF-8 Plain Text
  206. Duration : 1 h 50 min
  207. Bit rate : 87 b/s
  208. Count of elements : 2292
  209. Stream size : 70.8 KiB (0%)
  210. Language : English
  211. Default : No
  212. Forced : No
  213.  
  214. Menu
  215. 00:00:00.000 : Глава 01
  216. 00:09:14.095 : Глава 02
  217. 00:19:37.093 : Глава 03
  218. 00:25:43.208 : Глава 04
  219. 00:35:08.940 : Глава 05
  220. 00:44:45.474 : Глава 06
  221. 00:52:22.806 : Глава 07
  222. 01:00:23.161 : Глава 08
  223. 01:10:33.312 : Глава 09
  224. 01:20:08.512 : Глава 10
  225. 01:29:04.506 : Глава 11
  226. 01:41:08.980 : Глава 12
RAW Paste Data