daily pastebin goal
72%
SHARE
TWEET

Untitled

a guest Jan 20th, 2019 62 Never
Not a member of Pastebin yet? Sign Up, it unlocks many cool features!
  1. Exact Audio Copy V1.3 from 2. September 2016
  2.  
  3. EAC extraction logfile from 11. August 2018, 13:02
  4.  
  5. Zero T / Cheap Shots
  6.  
  7. Used drive  : ATAPI   iHAS122   E   Adapter: 1  ID: 0
  8.  
  9. Read mode               : Secure
  10. Utilize accurate stream : Yes
  11. Defeat audio cache      : Yes
  12. Make use of C2 pointers : No
  13.  
  14. Read offset correction                      : 6
  15. Overread into Lead-In and Lead-Out          : No
  16. Fill up missing offset samples with silence : Yes
  17. Delete leading and trailing silent blocks   : No
  18. Null samples used in CRC calculations       : Yes
  19. Used interface                              : Native Win32 interface for Win NT & 2000
  20. Gap handling                                : Appended to previous track
  21.  
  22. Used output format              : User Defined Encoder
  23. Selected bitrate                : 1024 kBit/s
  24. Quality                         : High
  25. Add ID3 tag                     : No
  26. Command line compressor         : C:\Program Files (x86)\Exact Audio Copy\Flac\win64\flac.exe
  27. Additional command line options : -8 -V -T "ARTIST=%artist%" -T "TITLE=%title%" -T "ALBUM=%albumtitle%" -T "DATE=%year%" -T "TRACKNUMBER=%tracknr%" -T "TOTALTRACKS=%numtracks%" -T "GENRE=%genre%" -T "ALBUMARTIST=%albumartist%" -T "ALBUM ARTIST=%albumartist%" -T "COMMENT=EAC Secure Mode, Test & Copy, AccurateRip, FLAC -8" %source%
  28.  
  29.  
  30. TOC of the extracted CD
  31.  
  32.      Track |   Start  |  Length  | Start sector | End sector
  33.     ---------------------------------------------------------
  34.         1  |  0:00.00 |  0:53.55 |         0    |     4029  
  35.         2  |  0:53.55 |  5:13.25 |      4030    |    27529  
  36.         3  |  6:07.05 |  5:35.37 |     27530    |    52691  
  37.         4  | 11:42.42 |  5:37.25 |     52692    |    77991  
  38.         5  | 17:19.67 |  5:59.13 |     77992    |   104929  
  39.         6  | 23:19.05 |  3:18.06 |    104930    |   119785  
  40.         7  | 26:37.11 |  7:05.35 |    119786    |   151695  
  41.         8  | 33:42.46 |  6:00.36 |    151696    |   178731  
  42.         9  | 39:43.07 |  4:26.72 |    178732    |   198753  
  43.        10  | 44:10.04 |  5:35.02 |    198754    |   223880  
  44.        11  | 49:45.06 |  6:01.05 |    223881    |   250960  
  45.        12  | 55:46.11 |  5:30.05 |    250961    |   275715  
  46.        13  | 61:16.16 |  2:39.46 |    275716    |   287686  
  47.        14  | 63:55.62 |  4:40.54 |    287687    |   308740  
  48.        15  | 68:36.41 |  4:26.19 |    308741    |   328709  
  49.        16  | 73:02.60 |  1:00.67 |    328710    |   333276  
  50.  
  51.  
  52. Track  1
  53.  
  54.      Filename D:\RIPS\EAC RIPS\01 - Cheap Intro.wav
  55.  
  56.      Pre-gap length  0:00:02.00
  57.  
  58.      Peak level 100.0 %
  59.      Extraction speed 2.2 X
  60.      Track quality 99.8 %
  61.      Test CRC D2C7481E
  62.      Copy CRC D2C7481E
  63.      Accurately ripped (confidence 5)  [A071CFBB]  (AR v1)
  64.      Copy OK
  65.  
  66. Track  2
  67.  
  68.      Filename D:\RIPS\EAC RIPS\02 - Hearbreak Ridge.wav
  69.  
  70.      Peak level 100.0 %
  71.      Extraction speed 5.7 X
  72.      Track quality 100.0 %
  73.      Test CRC 499E5BDF
  74.      Copy CRC 499E5BDF
  75.      Accurately ripped (confidence 5)  [E9AE2615]  (AR v1)
  76.      Copy OK
  77.  
  78. Track  3
  79.  
  80.      Filename D:\RIPS\EAC RIPS\03 - Inside Man.wav
  81.  
  82.      Pre-gap length  0:00:01.51
  83.  
  84.      Peak level 100.0 %
  85.      Extraction speed 6.4 X
  86.      Track quality 100.0 %
  87.      Test CRC 47168A49
  88.      Copy CRC 47168A49
  89.      Accurately ripped (confidence 5)  [531CF4A8]  (AR v1)
  90.      Copy OK
  91.  
  92. Track  4
  93.  
  94.      Filename D:\RIPS\EAC RIPS\04 - Reasonable Doubt.wav
  95.  
  96.      Pre-gap length  0:00:01.51
  97.  
  98.      Peak level 100.0 %
  99.      Extraction speed 6.2 X
  100.      Track quality 99.9 %
  101.      Test CRC 16342D82
  102.      Copy CRC 16342D82
  103.      Accurately ripped (confidence 5)  [14B9CC30]  (AR v1)
  104.      Copy OK
  105.  
  106. Track  5
  107.  
  108.      Filename D:\RIPS\EAC RIPS\05 - Walk Away.wav
  109.  
  110.      Pre-gap length  0:00:01.51
  111.  
  112.      Peak level 100.0 %
  113.      Extraction speed 6.7 X
  114.      Track quality 99.9 %
  115.      Test CRC 758B126B
  116.      Copy CRC 758B126B
  117.      Accurately ripped (confidence 5)  [003ED32C]  (AR v1)
  118.      Copy OK
  119.  
  120. Track  6
  121.  
  122.      Filename D:\RIPS\EAC RIPS\06 - Gota Touch.wav
  123.  
  124.      Pre-gap length  0:00:01.51
  125.  
  126.      Peak level 100.0 %
  127.      Extraction speed 7.5 X
  128.      Track quality 100.0 %
  129.      Test CRC 1E31269E
  130.      Copy CRC 1E31269E
  131.      Accurately ripped (confidence 5)  [B659AFFF]  (AR v1)
  132.      Copy OK
  133.  
  134. Track  7
  135.  
  136.      Filename D:\RIPS\EAC RIPS\07 - Why Would You.wav
  137.  
  138.      Pre-gap length  0:00:01.51
  139.  
  140.      Peak level 100.0 %
  141.      Extraction speed 8.6 X
  142.      Track quality 100.0 %
  143.      Test CRC E4151B23
  144.      Copy CRC E4151B23
  145.      Accurately ripped (confidence 5)  [C0161AC0]  (AR v1)
  146.      Copy OK
  147.  
  148. Track  8
  149.  
  150.      Filename D:\RIPS\EAC RIPS\08 - Rising Sun.wav
  151.  
  152.      Pre-gap length  0:00:01.51
  153.  
  154.      Peak level 100.0 %
  155.      Extraction speed 9.0 X
  156.      Track quality 100.0 %
  157.      Test CRC 31B499D5
  158.      Copy CRC 31B499D5
  159.      Accurately ripped (confidence 5)  [FF1F0BEB]  (AR v1)
  160.      Copy OK
  161.  
  162. Track  9
  163.  
  164.      Filename D:\RIPS\EAC RIPS\09 - Robots.wav
  165.  
  166.      Pre-gap length  0:00:01.51
  167.  
  168.      Peak level 100.0 %
  169.      Extraction speed 9.1 X
  170.      Track quality 100.0 %
  171.      Test CRC 1CF26145
  172.      Copy CRC 1CF26145
  173.      Accurately ripped (confidence 5)  [12BFC7A0]  (AR v1)
  174.      Copy OK
  175.  
  176. Track 10
  177.  
  178.      Filename D:\RIPS\EAC RIPS\10 - Go 4 Yours.wav
  179.  
  180.      Pre-gap length  0:00:01.51
  181.  
  182.      Peak level 100.0 %
  183.      Extraction speed 9.7 X
  184.      Track quality 100.0 %
  185.      Test CRC 4BA3D207
  186.      Copy CRC 4BA3D207
  187.      Accurately ripped (confidence 5)  [02D4E7B0]  (AR v1)
  188.      Copy OK
  189.  
  190. Track 11
  191.  
  192.      Filename D:\RIPS\EAC RIPS\11 - Angel Heart.wav
  193.  
  194.      Pre-gap length  0:00:01.14
  195.  
  196.      Peak level 100.0 %
  197.      Extraction speed 10.1 X
  198.      Track quality 100.0 %
  199.      Test CRC 93E1DEB1
  200.      Copy CRC 93E1DEB1
  201.      Accurately ripped (confidence 5)  [12A4804F]  (AR v1)
  202.      Copy OK
  203.  
  204. Track 12
  205.  
  206.      Filename D:\RIPS\EAC RIPS\12 - Threads.wav
  207.  
  208.      Pre-gap length  0:00:01.14
  209.  
  210.      Peak level 100.0 %
  211.      Extraction speed 10.4 X
  212.      Track quality 100.0 %
  213.      Test CRC F4DA6BED
  214.      Copy CRC F4DA6BED
  215.      Accurately ripped (confidence 5)  [A195868A]  (AR v1)
  216.      Copy OK
  217.  
  218. Track 13
  219.  
  220.      Filename D:\RIPS\EAC RIPS\13 - 1000 Dreams.wav
  221.  
  222.      Pre-gap length  0:00:01.51
  223.  
  224.      Peak level 100.0 %
  225.      Extraction speed 9.8 X
  226.      Track quality 100.0 %
  227.      Test CRC A9BB46A5
  228.      Copy CRC A9BB46A5
  229.      Accurately ripped (confidence 5)  [34B3E49A]  (AR v1)
  230.      Copy OK
  231.  
  232. Track 14
  233.  
  234.      Filename D:\RIPS\EAC RIPS\14 - Morning Sex.wav
  235.  
  236.      Pre-gap length  0:00:01.51
  237.  
  238.      Peak level 100.0 %
  239.      Extraction speed 10.7 X
  240.      Track quality 100.0 %
  241.      Test CRC 5F792237
  242.      Copy CRC 5F792237
  243.      Accurately ripped (confidence 5)  [745786A4]  (AR v1)
  244.      Copy OK
  245.  
  246. Track 15
  247.  
  248.      Filename D:\RIPS\EAC RIPS\15 - Long Road.wav
  249.  
  250.      Pre-gap length  0:00:01.51
  251.  
  252.      Peak level 100.0 %
  253.      Extraction speed 9.1 X
  254.      Track quality 99.9 %
  255.      Test CRC 8B3B22B6
  256.      Copy CRC 8B3B22B6
  257.      Accurately ripped (confidence 5)  [0CE1103B]  (AR v1)
  258.      Copy OK
  259.  
  260. Track 16
  261.  
  262.      Filename D:\RIPS\EAC RIPS\16 - Cheap Outro.wav
  263.  
  264.      Peak level 100.0 %
  265.      Extraction speed 7.7 X
  266.      Track quality 100.0 %
  267.      Test CRC C7DCF0F0
  268.      Copy CRC C7DCF0F0
  269.      Accurately ripped (confidence 5)  [DF0C6714]  (AR v1)
  270.      Copy OK
  271.  
  272.  
  273. All tracks accurately ripped
  274.  
  275. No errors occurred
  276.  
  277. End of status report
  278.  
  279. ---- CUETools DB Plugin V2.1.6
  280.  
  281. [CTDB TOCID: YlubMV30mvSNE0NM2PbeZOKJAc8-] found
  282. Submit result: YlubMV30mvSNE0NM2PbeZOKJAc8- has been confirmed
  283. Track | CTDB Status
  284.   1   | (3/3) Accurately ripped
  285.   2   | (3/3) Accurately ripped
  286.   3   | (3/3) Accurately ripped
  287.   4   | (3/3) Accurately ripped
  288.   5   | (3/3) Accurately ripped
  289.   6   | (3/3) Accurately ripped
  290.   7   | (3/3) Accurately ripped
  291.   8   | (3/3) Accurately ripped
  292.   9   | (3/3) Accurately ripped
  293.  10   | (3/3) Accurately ripped
  294.  11   | (3/3) Accurately ripped
  295.  12   | (3/3) Accurately ripped
  296.  13   | (3/3) Accurately ripped
  297.  14   | (3/3) Accurately ripped
  298.  15   | (3/3) Accurately ripped
  299.  16   | (3/3) Accurately ripped
  300.  
  301.  
  302. ==== Log checksum C9DD9328EE646C99CC0F66E65E3269D240227DF84E20A35E2EB9665ABC54D546 ====
RAW Paste Data
We use cookies for various purposes including analytics. By continuing to use Pastebin, you agree to our use of cookies as described in the Cookies Policy. OK, I Understand
 
Top