SHARE
TWEET

Happy Death Day 2U BluRay HEVC

dirtyharrys May 28th, 2019 103 Never
Not a member of Pastebin yet? Sign Up, it unlocks many cool features!
  1. General
  2. Unique ID                   : 76400976267018572192690058367609335555 (0x397A4AF4C3A9C091CA198EF82623EF03)
  3. Complete name               : E:\Happy.Death.Day.2U.2019.BluRay.1080p.HEVC.x265\Happy.Death.Day.2U.2019.BluRay.1080p.HEVC.x265.mkv
  4. Format                      : Matroska
  5. Format version              : Version 4
  6. File size                   : 5.69 GiB
  7. Duration                    : 1 h 39 min
  8. Overall bit rate            : 8 148 kb/s
  9. Movie name                  : Happy Death Day 2U BluRay / Happy Death Day 2U BluRay
  10. Encoded date                : UTC 2019-05-10 17:36:00
  11. Writing application         : mkvmerge v30.1.0 ('Forever And More') 32-bit
  12. Writing library             : libebml v1.3.6 + libmatroska v1.4.9
  13. Copyright                   : Movies HDs 2019
  14. ARTIST                      : HarshLearner
  15.  
  16. Video
  17. ID                          : 1
  18. Format                      : HEVC
  19. Format/Info                 : High Efficiency Video Coding
  20. Format profile              : Main 10@L4.1@High
  21. Codec ID                    : V_MPEGH/ISO/HEVC
  22. Duration                    : 1 h 39 min
  23. Bit rate                    : 6 841 kb/s
  24. Width                       : 1 920 pixels
  25. Height                      : 800 pixels
  26. Display aspect ratio        : 2.40:1
  27. Frame rate mode             : Constant
  28. Frame rate                  : 23.976 (24000/1001) FPS
  29. Color space                 : YUV
  30. Chroma subsampling          : 4:2:0
  31. Bit depth                   : 10 bits
  32. Bits/(Pixel*Frame)          : 0.186
  33. Stream size                 : 4.78 GiB (84%)
  34. Title                       : Happy Death Day 2U
  35. Language                    : English
  36. Default                     : Yes
  37. Forced                      : No
  38. Color range                 : Limited
  39. Color primaries             : BT.709
  40. Transfer characteristics    : BT.709
  41. Matrix coefficients         : BT.709
  42.  
  43. Audio #1
  44. ID                          : 2
  45. Format                      : AC-3
  46. Format/Info                 : Audio Coding 3
  47. Commercial name             : Dolby Digital
  48. Codec ID                    : A_AC3
  49. Duration                    : 1 h 39 min
  50. Bit rate mode               : Constant
  51. Bit rate                    : 640 kb/s
  52. Channel(s)                  : 6 channels
  53. Channel layout              : L R C LFE Ls Rs
  54. Sampling rate               : 48.0 kHz
  55. Frame rate                  : 31.250 FPS (1536 SPF)
  56. Bit depth                   : 16 bits
  57. Compression mode            : Lossy
  58. Stream size                 : 457 MiB (8%)
  59. Language                    : English
  60. Service kind                : Complete Main
  61. Default                     : No
  62. Forced                      : No
  63.  
  64. Audio #2
  65. ID                          : 3
  66. Format                      : AC-3
  67. Format/Info                 : Audio Coding 3
  68. Commercial name             : Dolby Digital
  69. Codec ID                    : A_AC3
  70. Duration                    : 1 h 39 min
  71. Bit rate mode               : Constant
  72. Bit rate                    : 640 kb/s
  73. Channel(s)                  : 6 channels
  74. Channel layout              : L R C LFE Ls Rs
  75. Sampling rate               : 48.0 kHz
  76. Frame rate                  : 31.250 FPS (1536 SPF)
  77. Bit depth                   : 16 bits
  78. Compression mode            : Lossy
  79. Stream size                 : 457 MiB (8%)
  80. Language                    : Spanish
  81. Service kind                : Complete Main
  82. Default                     : Yes
  83. Forced                      : Yes
  84.  
  85. Text #1
  86. ID                          : 4
  87. Format                      : PGS
  88. Muxing mode                 : zlib
  89. Codec ID                    : S_HDMV/PGS
  90. Codec ID/Info               : Picture based subtitle format used on BDs/HD-DVDs
  91. Duration                    : 1 h 34 min
  92. Bit rate                    : 46.5 kb/s
  93. Count of elements           : 3190
  94. Stream size                 : 31.3 MiB (1%)
  95. Language                    : English
  96. Default                     : No
  97. Forced                      : No
  98.  
  99. Text #2
  100. ID                          : 5
  101. Format                      : PGS
  102. Muxing mode                 : zlib
  103. Codec ID                    : S_HDMV/PGS
  104. Codec ID/Info               : Picture based subtitle format used on BDs/HD-DVDs
  105. Duration                    : 1 h 38 min
  106. Bit rate                    : 33.3 kb/s
  107. Count of elements           : 2530
  108. Stream size                 : 23.5 MiB (0%)
  109. Language                    : Spanish
  110. Default                     : No
  111. Forced                      : No
  112.  
  113. Text #3
  114. ID                          : 6
  115. Format                      : PGS
  116. Muxing mode                 : zlib
  117. Codec ID                    : S_HDMV/PGS
  118. Codec ID/Info               : Picture based subtitle format used on BDs/HD-DVDs
  119. Duration                    : 1 h 36 min
  120. Bit rate                    : 554 b/s
  121. Count of elements           : 44
  122. Stream size                 : 393 KiB (0%)
  123. Language                    : Spanish
  124. Default                     : No
  125. Forced                      : No
  126.  
  127. Text #4
  128. ID                          : 7
  129. Format                      : UTF-8
  130. Codec ID                    : S_TEXT/UTF8
  131. Codec ID/Info               : UTF-8 Plain Text
  132. Duration                    : 1 h 39 min
  133. Bit rate                    : 68 b/s
  134. Count of elements           : 1868
  135. Stream size                 : 50.4 KiB (0%)
  136. Language                    : English
  137. Default                     : No
  138. Forced                      : No
  139.  
  140. Text #5
  141. ID                          : 8
  142. Format                      : UTF-8
  143. Codec ID                    : S_TEXT/UTF8
  144. Codec ID/Info               : UTF-8 Plain Text
  145. Duration                    : 1 h 33 min
  146. Bit rate                    : 62 b/s
  147. Count of elements           : 1491
  148. Stream size                 : 42.9 KiB (0%)
  149. Language                    : Spanish
  150. Default                     : Yes
  151. Forced                      : Yes
  152.  
  153. Menu
  154. 00:00:00.000                : en:Chapter 01
  155. 00:07:42.253                : en:Chapter 02
  156. 00:16:01.085                : en:Chapter 03
  157. 00:21:16.066                : en:Chapter 04
  158. 00:24:21.460                : en:Chapter 05
  159. 00:28:44.890                : en:Chapter 06
  160. 00:32:34.661                : en:Chapter 07
  161. 00:37:15.817                : en:Chapter 08
  162. 00:42:02.812                : en:Chapter 09
  163. 00:45:35.107                : en:Chapter 10
  164. 00:48:37.665                : en:Chapter 11
  165. 00:54:27.347                : en:Chapter 12
  166. 01:00:36.341                : en:Chapter 13
  167. 01:06:24.314                : en:Chapter 14
  168. 01:13:19.520                : en:Chapter 15
  169. 01:17:47.079                : en:Chapter 16
  170. 01:21:31.762                : en:Chapter 17
  171. 01:27:36.084                : en:Chapter 18
  172. 01:33:02.994                : en:Chapter 19
  173. 01:35:05.700                : en:Chapter 20
RAW Paste Data
We use cookies for various purposes including analytics. By continuing to use Pastebin, you agree to our use of cookies as described in the Cookies Policy. OK, I Understand
 
Top