SHARE
TWEET

Handbrake Activity

silsurf May 24th, 2019 89 Never
Not a member of Pastebin yet? Sign Up, it unlocks many cool features!
  1. [23:41:13] macgui: Handbrake Version: 1.2.2  (2019022300)
  2. [23:41:13] hb_init: starting libhb thread
  3. [23:41:13] hb_init: starting libhb thread
  4. [23:44:14] macgui: trying to open a folder or file
  5. [23:44:14] macgui: ScanCore scanning titles with a duration of 10 seconds or more
  6. [23:44:14] CPU: Intel(R) Core(TM) i5 CPU       M 520  @ 2.40GHz
  7. [23:44:14]  - logical processor count: 4
  8. [23:44:14] hb_scan: path=/Users/Downloads/Rerberg and Tarkovsky The Reverse Side of  Stalker (2009) DVD Remux.mkv, title_index=0
  9. udfread ERROR: ECMA 167 Volume Recognition failed
  10. disc.c:323: failed opening UDF image /Users/Downloads/Rerberg and Tarkovsky The Reverse Side of  Stalker (2009) DVD Remux.mkv
  11. disc.c:424: error opening file BDMV/index.bdmv
  12. disc.c:424: error opening file BDMV/BACKUP/index.bdmv
  13. [23:44:14] bd: not a bd - trying as a stream/file instead
  14. libdvdnav: Using dvdnav version 6.0.0
  15. libdvdread: Encrypted DVD support unavailable.
  16. libdvdread:DVDOpenFileUDF:UDFFindFile /VIDEO_TS/VIDEO_TS.IFO failed
  17. libdvdread:DVDOpenFileUDF:UDFFindFile /VIDEO_TS/VIDEO_TS.BUP failed
  18. libdvdread: Can't open file VIDEO_TS.IFO.
  19. libdvdnav: vm: failed to read VIDEO_TS.IFO
  20. [23:44:14] dvd: not a dvd - trying as a stream/file instead
  21. Input #0, matroska,webm, from '/Users/Downloads/Rerberg and Tarkovsky The Reverse Side of  Stalker (2009) DVD Remux.mkv':
  22.   Metadata:
  23.     encoder         : libebml v1.3.5 + libmatroska v1.4.8
  24.     creation_time   : 2019-05-20T09:54:43.000000Z
  25.   Duration: 02:21:01.44, start: 0.000000, bitrate: 7147 kb/s
  26.     Chapter #0:0: start 0.000000, end 75.120000
  27.     Metadata:
  28.       title           : Chapter 01
  29.     Chapter #0:1: start 75.120000, end 749.200000
  30.     Metadata:
  31.       title           : Chapter 02
  32.     Chapter #0:2: start 749.200000, end 2993.160000
  33.     Metadata:
  34.       title           : Chapter 03
  35.     Chapter #0:3: start 2993.160000, end 4351.760000
  36.     Metadata:
  37.       title           : Chapter 04
  38.     Chapter #0:4: start 4351.760000, end 4945.720000
  39.     Metadata:
  40.       title           : Chapter 05
  41.     Chapter #0:5: start 4945.720000, end 6039.280000
  42.     Metadata:
  43.       title           : Chapter 06
  44.     Chapter #0:6: start 6039.280000, end 7686.360000
  45.     Metadata:
  46.       title           : Chapter 07
  47.     Chapter #0:7: start 7686.360000, end 8309.160000
  48.     Metadata:
  49.       title           : Chapter 08
  50.     Chapter #0:8: start 8309.160000, end 8461.440000
  51.     Metadata:
  52.       title           : Chapter 09
  53.     Stream #0:0(eng): Video: mpeg2video (Main), yuv420p(tv, top first), 720x576 [SAR 16:15 DAR 4:3], 25 fps, 25 tbr, 1k tbn, 50 tbc
  54.     Metadata:
  55.       BPS-eng         : 6504777
  56.       DURATION-eng    : 02:21:01.440000000
  57.       NUMBER_OF_FRAMES-eng: 211536
  58.       NUMBER_OF_BYTES-eng: 6879972786
  59.       _STATISTICS_WRITING_APP-eng: mkvmerge v22.0.0 ('At The End Of The World') 64-bit
  60.       _STATISTICS_WRITING_DATE_UTC-eng: 2019-05-20 09:54:43
  61.       _STATISTICS_TAGS-eng: BPS DURATION NUMBER_OF_FRAMES NUMBER_OF_BYTES
  62.     Stream #0:1(rus): Audio: ac3, 48000 Hz, 5.1(side), fltp, 448 kb/s (default)
  63.     Metadata:
  64.       title           : Surround 5.1
  65.       BPS-eng         : 448000
  66.       DURATION-eng    : 02:21:00.192000000
  67.       NUMBER_OF_FRAMES-eng: 264381
  68.       NUMBER_OF_BYTES-eng: 473770752
  69.       _STATISTICS_WRITING_APP-eng: mkvmerge v22.0.0 ('At The End Of The World') 64-bit
  70.       _STATISTICS_WRITING_DATE_UTC-eng: 2019-05-20 09:54:43
  71.       _STATISTICS_TAGS-eng: BPS DURATION NUMBER_OF_FRAMES NUMBER_OF_BYTES
  72.     Stream #0:2(rus): Audio: ac3, 48000 Hz, stereo, fltp, 192 kb/s
  73.     Metadata:
  74.       title           : Stereo
  75.       BPS-eng         : 192000
  76.       DURATION-eng    : 02:21:00.288000000
  77.       NUMBER_OF_FRAMES-eng: 264384
  78.       NUMBER_OF_BYTES-eng: 203046912
  79.       _STATISTICS_WRITING_APP-eng: mkvmerge v22.0.0 ('At The End Of The World') 64-bit
  80.       _STATISTICS_WRITING_DATE_UTC-eng: 2019-05-20 09:54:43
  81.       _STATISTICS_TAGS-eng: BPS DURATION NUMBER_OF_FRAMES NUMBER_OF_BYTES
  82.     Stream #0:3: Subtitle: subrip (default)
  83.     Metadata:
  84.       BPS-eng         : 74
  85.       DURATION-eng    : 02:17:56.523000000
  86.       NUMBER_OF_FRAMES-eng: 1755
  87.       NUMBER_OF_BYTES-eng: 77437
  88.       _STATISTICS_WRITING_APP-eng: mkvmerge v22.0.0 ('At The End Of The World') 64-bit
  89.       _STATISTICS_WRITING_DATE_UTC-eng: 2019-05-20 09:54:43
  90.       _STATISTICS_TAGS-eng: BPS DURATION NUMBER_OF_FRAMES NUMBER_OF_BYTES
  91. [23:44:14] scan: decoding previews for title 1
  92. [23:44:14] scan: audio 0x1: ac3, rate=48000Hz, bitrate=448000 русский (AC3) (5.1 ch)
  93. [23:44:14] scan: audio 0x2: ac3, rate=48000Hz, bitrate=192000 русский (AC3) (2.0 ch)
  94. [23:44:14] scan: 10 previews, 720x576, 25.000 fps, autocrop = 10/4/0/0, aspect 4:3, PAR 16:15
  95. [23:44:14] libhb: scan thread found 1 valid title(s)
  96. [23:44:15] macgui: ScanCore scan done
  97. [23:49:01] macgui: QueueCore prevented sleep
  98. [23:49:01] macgui: QueueCore scanning specifically for title: 1
  99. [23:49:01] CPU: Intel(R) Core(TM) i5 CPU       M 520  @ 2.40GHz
  100. [23:49:01]  - logical processor count: 4
  101. [23:49:01] hb_scan: path=/Users/henrycline/Downloads/Rerberg and Tarkovsky The Reverse Side of  Stalker (2009) DVD Remux.mkv, title_index=1
  102. udfread ERROR: ECMA 167 Volume Recognition failed
  103. disc.c:323: failed opening UDF image /Users/henrycline/Downloads/Rerberg and Tarkovsky The Reverse Side of  Stalker (2009) DVD Remux.mkv
  104. disc.c:424: error opening file BDMV/index.bdmv
  105. disc.c:424: error opening file BDMV/BACKUP/index.bdmv
  106. [23:49:01] bd: not a bd - trying as a stream/file instead
  107. libdvdnav: Using dvdnav version 6.0.0
  108. libdvdread: Encrypted DVD support unavailable.
  109. libdvdread:DVDOpenFileUDF:UDFFindFile /VIDEO_TS/VIDEO_TS.IFO failed
  110. libdvdread:DVDOpenFileUDF:UDFFindFile /VIDEO_TS/VIDEO_TS.BUP failed
  111. libdvdread: Can't open file VIDEO_TS.IFO.
  112. libdvdnav: vm: failed to read VIDEO_TS.IFO
  113. [23:49:01] dvd: not a dvd - trying as a stream/file instead
  114. Input #0, matroska,webm, from '/Users/Downloads/Rerberg and Tarkovsky The Reverse Side of  Stalker (2009) DVD Remux.mkv':
  115.   Metadata:
  116.     encoder         : libebml v1.3.5 + libmatroska v1.4.8
  117.     creation_time   : 2019-05-20T09:54:43.000000Z
  118.   Duration: 02:21:01.44, start: 0.000000, bitrate: 7147 kb/s
  119.     Chapter #0:0: start 0.000000, end 75.120000
  120.     Metadata:
  121.       title           : Chapter 01
  122.     Chapter #0:1: start 75.120000, end 749.200000
  123.     Metadata:
  124.       title           : Chapter 02
  125.     Chapter #0:2: start 749.200000, end 2993.160000
  126.     Metadata:
  127.       title           : Chapter 03
  128.     Chapter #0:3: start 2993.160000, end 4351.760000
  129.     Metadata:
  130.       title           : Chapter 04
  131.     Chapter #0:4: start 4351.760000, end 4945.720000
  132.     Metadata:
  133.       title           : Chapter 05
  134.     Chapter #0:5: start 4945.720000, end 6039.280000
  135.     Metadata:
  136.       title           : Chapter 06
  137.     Chapter #0:6: start 6039.280000, end 7686.360000
  138.     Metadata:
  139.       title           : Chapter 07
  140.     Chapter #0:7: start 7686.360000, end 8309.160000
  141.     Metadata:
  142.       title           : Chapter 08
  143.     Chapter #0:8: start 8309.160000, end 8461.440000
  144.     Metadata:
  145.       title           : Chapter 09
  146.     Stream #0:0(eng): Video: mpeg2video (Main), yuv420p(tv, top first), 720x576 [SAR 16:15 DAR 4:3], 25 fps, 25 tbr, 1k tbn, 50 tbc
  147.     Metadata:
  148.       BPS-eng         : 6504777
  149.       DURATION-eng    : 02:21:01.440000000
  150.       NUMBER_OF_FRAMES-eng: 211536
  151.       NUMBER_OF_BYTES-eng: 6879972786
  152.       _STATISTICS_WRITING_APP-eng: mkvmerge v22.0.0 ('At The End Of The World') 64-bit
  153.       _STATISTICS_WRITING_DATE_UTC-eng: 2019-05-20 09:54:43
  154.       _STATISTICS_TAGS-eng: BPS DURATION NUMBER_OF_FRAMES NUMBER_OF_BYTES
  155.     Stream #0:1(rus): Audio: ac3, 48000 Hz, 5.1(side), fltp, 448 kb/s (default)
  156.     Metadata:
  157.       title           : Surround 5.1
  158.       BPS-eng         : 448000
  159.       DURATION-eng    : 02:21:00.192000000
  160.       NUMBER_OF_FRAMES-eng: 264381
  161.       NUMBER_OF_BYTES-eng: 473770752
  162.       _STATISTICS_WRITING_APP-eng: mkvmerge v22.0.0 ('At The End Of The World') 64-bit
  163.       _STATISTICS_WRITING_DATE_UTC-eng: 2019-05-20 09:54:43
  164.       _STATISTICS_TAGS-eng: BPS DURATION NUMBER_OF_FRAMES NUMBER_OF_BYTES
  165.     Stream #0:2(rus): Audio: ac3, 48000 Hz, stereo, fltp, 192 kb/s
  166.     Metadata:
  167.       title           : Stereo
  168.       BPS-eng         : 192000
  169.       DURATION-eng    : 02:21:00.288000000
  170.       NUMBER_OF_FRAMES-eng: 264384
  171.       NUMBER_OF_BYTES-eng: 203046912
  172.       _STATISTICS_WRITING_APP-eng: mkvmerge v22.0.0 ('At The End Of The World') 64-bit
  173.       _STATISTICS_WRITING_DATE_UTC-eng: 2019-05-20 09:54:43
  174.       _STATISTICS_TAGS-eng: BPS DURATION NUMBER_OF_FRAMES NUMBER_OF_BYTES
  175.     Stream #0:3: Subtitle: subrip (default)
  176.     Metadata:
  177.       BPS-eng         : 74
  178.       DURATION-eng    : 02:17:56.523000000
  179.       NUMBER_OF_FRAMES-eng: 1755
  180.       NUMBER_OF_BYTES-eng: 77437
  181.       _STATISTICS_WRITING_APP-eng: mkvmerge v22.0.0 ('At The End Of The World') 64-bit
  182.       _STATISTICS_WRITING_DATE_UTC-eng: 2019-05-20 09:54:43
  183.       _STATISTICS_TAGS-eng: BPS DURATION NUMBER_OF_FRAMES NUMBER_OF_BYTES
  184. [23:49:01] scan: decoding previews for title 1
  185. [23:49:01] scan: audio 0x1: ac3, rate=48000Hz, bitrate=448000 русский (AC3) (5.1 ch)
  186. [23:49:01] scan: audio 0x2: ac3, rate=48000Hz, bitrate=192000 русский (AC3) (2.0 ch)
  187. [23:49:01] scan: 10 previews, 720x576, 25.000 fps, autocrop = 10/4/0/0, aspect 4:3, PAR 16:15
  188. [23:49:01] libhb: scan thread found 1 valid title(s)
  189. [23:49:01] macgui: QueueCore scan done
  190. [23:49:01] 1 job(s) to process
  191. [23:49:01] Skipping subtitle scan.  No suitable subtitle tracks.
  192. [23:49:01] starting job
  193. [23:49:01] macgui: QueueCore started encoding Rerberg and Tarkovsky The Reverse Side of  Stalker (2009) DVD Remux.m4v
  194. [23:49:01] macgui: QueueCore with preset Very Fast 720p30
  195. [23:49:01] decomb filter thread started for segment 0
  196. [23:49:01] decomb filter thread started for segment 1
  197. [23:49:01] decomb filter thread started for segment 2
  198. [23:49:01] decomb filter thread started for segment 3
  199. [23:49:01] decomb check thread started for segment 0
  200. [23:49:01] decomb check thread started for segment 1
  201. [23:49:01] decomb check thread started for segment 2
  202. [23:49:01] decomb check thread started for segment 3
  203. [23:49:01] yadif thread started for segment 0
  204. [23:49:01] yadif thread started for segment 1
  205. [23:49:01] yadif thread started for segment 2
  206. [23:49:01] yadif thread started for segment 3
  207. [23:49:01] [ass] Shaper: FriBidi 0.19.7 (SIMPLE) HarfBuzz-ng 1.7.2 (COMPLEX)
  208. [23:49:01] [ass] Using font provider coretext
  209. [23:49:01] job configuration:
  210. [23:49:01]  * source
  211. [23:49:01]    + /Users/Downloads/Rerberg and Tarkovsky The Reverse Side of  Stalker (2009) DVD Remux.mkv
  212. [23:49:01]    + title 1, chapter(s) 1 to 9
  213. [23:49:01]    + container: matroska,webm
  214. [23:49:01]    + data rate: 7147 kbps
  215. [23:49:01]  * destination
  216. [23:49:01]    + /Users/Desktop/Rerberg and Tarkovsky The Reverse Side of  Stalker (2009) DVD Remux.m4v
  217. [23:49:01]    + container: MPEG-4 (libavformat)
  218. [23:49:01]      + align initial A/V stream timestamps
  219. [23:49:01]      + chapter markers
  220. [23:49:01]  * video track
  221. [23:49:01]    + decoder: mpeg2video
  222. [23:49:01]    + filters
  223. [23:49:01]      + Comb Detect (mode=0:spatial-metric=2:motion-thresh=2:spatial-thresh=3:filter-mode=1:block-thresh=80:block-width=16:block-height=16)
  224. [23:49:01]      + Decomb (mode=39)
  225. [23:49:01]      + Framerate Shaper (mode=2:rate=27000000/900000)
  226. [23:49:01]        + frame rate: 25.000 fps -> peak rate limited to 30.000 fps
  227. [23:49:01]      + Subtitle renderer ()
  228. [23:49:01]      + Crop and Scale (width=720:height=562:crop-top=10:crop-bottom=4:crop-left=0:crop-right=0)
  229. [23:49:01]        + source: 720 * 576, crop (10/4/0/0): 720 * 562, scale: 720 * 562
  230. [23:49:01]    + Output geometry
  231. [23:49:01]      + storage dimensions: 720 x 562
  232. [23:49:01]      + pixel aspect ratio: 16 : 15
  233. [23:49:01]      + display dimensions: 768 x 562
  234. [23:49:01]    + encoder: H.264 (libx264)
  235. [23:49:01]      + preset:  veryfast
  236. [23:49:01]      + profile: main
  237. [23:49:01]      + level:   3.1
  238. [23:49:01]      + quality: 23.00 (RF)
  239. [23:49:01]      + color profile: 5-1-6
  240. [23:49:01]  * subtitle track 1, English [SRT] (track 0, id 0xff, Text) -> Render/Burn-in, offset: 0, charset: ISO-8859-1
  241. [23:49:01]  * audio track 1
  242. [23:49:01]    + decoder: русский (AC3) (5.1 ch) (track 1, id 0x1)
  243. [23:49:01]      + bitrate: 448 kbps, samplerate: 48000 Hz
  244. [23:49:01]    + mixdown: Stereo
  245. [23:49:01]    + dither: triangular
  246. [23:49:01]    + encoder: AAC (Apple AudioToolbox)
  247. [23:49:01]      + bitrate: 160 kbps, samplerate: 48000 Hz
  248. [23:49:01] sync: expecting 211536 video frames
  249. [23:49:01] encx264: encoding at constant RF 23.000000
  250. [23:49:01] encx264: unparsed options: level=3.1:ref=1:8x8dct=0:weightp=1:subme=2:mixed-refs=0:trellis=0:vbv-bufsize=14000:vbv-maxrate=14000:rc-lookahead=10
  251. x264 [info]: using SAR=16/15
  252. x264 [info]: using cpu capabilities: MMX2 SSE2Fast SSSE3 SSE4.2
  253. x264 [info]: profile Main, level 3.1, 4:2:0, 8-bit
  254. [23:49:01] sync: first pts video is 0
  255. [23:49:01] sync: "Chapter 1" (1) at frame 1 time 0
  256. [23:49:01] sync: first pts audio 0x1 is 0
  257. [23:49:01] sync: first pts subtitle 0xff is 0
  258. [23:49:01] sync: subtitle 0xff duration <= 0, PTS 0
  259. [23:49:18] sync: "Chapter 2" (2) at frame 1879 time 6760800
  260. [23:53:45] sync: "Chapter 3" (3) at frame 18731 time 67428000
  261. [00:04:56] sync: "Chapter 4" (4) at frame 74830 time 269384400
  262. [00:10:21] sync: "Chapter 5" (5) at frame 108795 time 391658400
  263. [00:12:52] sync: "Chapter 6" (6) at frame 123644 time 445114800
  264. [00:17:00] sync: "Chapter 7" (7) at frame 150983 time 543535200
  265. [00:23:25] sync: "Chapter 8" (8) at frame 192160 time 691772400
  266. [00:26:22] sync: "Chapter 9" (9) at frame 207730 time 747824400
  267. [00:26:52] reader: done. 1 scr changes
  268. [00:26:53] work: average encoding speed for job is 93.112518 fps
  269. [00:26:53] comb detect: heavy 756 | light 11011 | uncombed 199769 | total 211536
  270. [00:26:53] decomb: deinterlaced 756 | blended 11011 | unfiltered 199769 | total 211536
  271. [00:26:53] vfr: 211536 frames output, 0 dropped and 0 duped for CFR/PFR
  272. [00:26:53] vfr: lost time: 0 (0 frames)
  273. [00:26:53] vfr: gained time: 0 (0 frames) (0 not accounted for)
  274. [00:26:53] ac3-decoder done: 264381 frames, 0 decoder errors
  275. [00:26:53] mpeg2video-decoder done: 211536 frames, 0 decoder errors
  276. [00:26:53] sync: got 211536 frames, 211536 expected
  277. [00:26:53] sync: framerate min 25.000 fps, max 25.000 fps, avg 25.000 fps
  278. x264 [info]: frame I:1361  Avg QP:20.64  size: 41460
  279. x264 [info]: frame P:58315 Avg QP:23.99  size:  7081
  280. x264 [info]: frame B:151860 Avg QP:25.96  size:  1707
  281. x264 [info]: consecutive B-frames:  3.2%  2.4%  2.3% 92.1%
  282. x264 [info]: mb I  I16..4: 32.5%  0.0% 67.5%
  283. x264 [info]: mb P  I16..4: 10.2%  0.0%  4.5%  P16..4: 34.0% 12.2%  5.8%  0.0%  0.0%    skip:33.2%
  284. x264 [info]: mb B  I16..4:  1.7%  0.0%  0.5%  B16..8: 11.4%  3.6%  0.4%  direct: 7.3%  skip:75.3%  L0:36.7% L1:46.1% BI:17.2%
  285. x264 [info]: coded y,uvDC,uvAC intra: 45.1% 40.0% 11.3% inter: 9.0% 7.1% 0.1%
  286. x264 [info]: i16 v,h,dc,p: 42% 22% 22% 14%
  287. x264 [info]: i4 v,h,dc,ddl,ddr,vr,hd,vl,hu: 25% 17% 16%  7%  7%  7%  7%  6%  7%
  288. x264 [info]: i8c dc,h,v,p: 57% 17% 22%  4%
  289. x264 [info]: Weighted P-Frames: Y:11.4% UV:4.3%
  290. x264 [info]: kb/s:688.92
  291. [00:26:53] mux: track 0, 211536 frames, 728601180 bytes, 688.86 kbps, fifo 8192
  292. [00:26:53] mux: track 1, 396621 frames, 158927567 bytes, 150.26 kbps, fifo 16384
  293. [00:26:53] libhb: work result = 0
  294. [00:26:54] macgui: QueueCore work done
  295. [00:26:54] macgui: Queue Done, there are no more pending encodes
  296. [00:26:54] macgui: QueueCore stopped preventing sleep
RAW Paste Data
We use cookies for various purposes including analytics. By continuing to use Pastebin, you agree to our use of cookies as described in the Cookies Policy. OK, I Understand
 
Top