iMN0

Limbo.2021.REPACK.1080p.WEB-DL.DD5.1.H.264-EVO.mkv

Jun 29th, 2021
63
Never
Not a member of Pastebin yet? Sign Up, it unlocks many cool features!
  1. General
  2. Unique ID : 227807924551941509784694388069917331699 (0xAB6235D941CCE403E05B08A6AF1110F3)
  3. Complete name : Limbo.2021.REPACK.1080p.WEB-DL.DD5.1.H.264-EVO.mkv
  4. Format : Matroska
  5. Format version : Version 4
  6. File size : 5.21 GiB
  7. Duration : 1 h 44 min
  8. Overall bit rate : 7 119 kb/s
  9. Encoded date : UTC 2021-06-29 04:54:05
  10. Writing application : mkvmerge v49.0.0 ('Sick Of Losing Soulmates') 64-bit
  11. Writing library : libebml v1.4.0 + libmatroska v1.6.1
  12. Cover : Yes
  13. Attachments : cover.jpg
  14.  
  15. Video
  16. ID : 1
  17. Format : AVC
  18. Format/Info : Advanced Video Codec
  19. Format profile : High@L4
  20. Format settings : CABAC / 4 Ref Frames
  21. Format settings, CABAC : Yes
  22. Format settings, Reference frames : 4 frames
  23. Codec ID : V_MPEG4/ISO/AVC
  24. Duration : 1 h 44 min
  25. Bit rate : 6 733 kb/s
  26. Width : 1 918 pixels
  27. Height : 1 040 pixels
  28. Display aspect ratio : 1.85:1
  29. Frame rate mode : Constant
  30. Frame rate : 23.976 (24000/1001) FPS
  31. Color space : YUV
  32. Chroma subsampling : 4:2:0
  33. Bit depth : 8 bits
  34. Scan type : Progressive
  35. Bits/(Pixel*Frame) : 0.141
  36. Stream size : 4.92 GiB (95%)
  37. Default : Yes
  38. Forced : No
  39. Color range : Limited
  40. Color primaries : BT.709
  41. Transfer characteristics : BT.709
  42. Matrix coefficients : BT.709
  43.  
  44. Audio
  45. ID : 2
  46. Format : AC-3
  47. Format/Info : Audio Coding 3
  48. Commercial name : Dolby Digital
  49. Codec ID : A_AC3
  50. Duration : 1 h 44 min
  51. Bit rate mode : Constant
  52. Bit rate : 384 kb/s
  53. Channel(s) : 6 channels
  54. Channel layout : L R C LFE Ls Rs
  55. Sampling rate : 48.0 kHz
  56. Frame rate : 31.250 FPS (1536 SPF)
  57. Compression mode : Lossy
  58. Stream size : 288 MiB (5%)
  59. Language : English
  60. Service kind : Complete Main
  61. Default : Yes
  62. Forced : No
RAW Paste Data