Advertisement
Guest User

Untitled

a guest
Nov 5th, 2015
192
Never
Not a member of Pastebin yet? Sign Up, it unlocks many cool features!
  1. General
  2. Complete name : E:\I Hired a Contract Killer (1990)\I Hired a Contract Killer.avi
  3. Format : AVI
  4. Format/Info : Audio Video Interleave
  5. File size : 1.47 GiB
  6. Duration : 1h 19mn
  7. Overall bit rate : 2 650 Kbps
  8. Movie name : Ya.Nanyal.Ubiytsu.1990.XviD.BDRip.MetionInka
  9. Director : rip MetionInka
  10. Genre : Drama
  11. Writing application : VirtualDubMod 1.5.10.3 | www.virtualdub-fr.org || (build 2550/release)
  12. Original source form/Name : I Hired a Contract Killer / 1990
  13. Copyright : rutracker.org
  14. Comment : RusMVO+RusAVO+OrigENG
  15.  
  16. Video
  17. ID : 0
  18. Format : MPEG-4 Visual
  19. Format profile : Advanced Simple@L5
  20. Format settings, BVOP : 2
  21. Format settings, QPel : No
  22. Format settings, GMC : No warppoints
  23. Format settings, Matrix : Custom
  24. Codec ID : XVID
  25. Codec ID/Hint : XviD
  26. Duration : 1h 19mn
  27. Bit rate : 2 056 Kbps
  28. Width : 720 pixels
  29. Height : 400 pixels
  30. Display aspect ratio : 16:9
  31. Frame rate : 23.976 fps
  32. Color space : YUV
  33. Chroma subsampling : 4:2:0
  34. Bit depth : 8 bits
  35. Scan type : Progressive
  36. Compression mode : Lossy
  37. Bits/(Pixel*Frame) : 0.298
  38. Stream size : 1.14 GiB (78%)
  39. Writing library : XviD 73
  40.  
  41. Audio #1
  42. ID : 1
  43. Format : AC-3
  44. Format/Info : Audio Coding 3
  45. Mode extension : CM (complete main)
  46. Format settings, Endianness : Big
  47. Codec ID : 2000
  48. Duration : 1h 19mn
  49. Bit rate mode : Constant
  50. Bit rate : 192 Kbps
  51. Channel(s) : 2 channels
  52. Channel positions : Front: L R
  53. Sampling rate : 48.0 KHz
  54. Compression mode : Lossy
  55. Stream size : 109 MiB (7%)
  56. Alignment : Split accross interleaves
  57. Interleave, duration : 42 ms (1.00 video frame)
  58. Interleave, preload duration : 500 ms
  59.  
  60. Audio #2
  61. ID : 2
  62. Format : AC-3
  63. Format/Info : Audio Coding 3
  64. Mode extension : CM (complete main)
  65. Format settings, Endianness : Big
  66. Codec ID : 2000
  67. Duration : 1h 19mn
  68. Bit rate mode : Constant
  69. Bit rate : 192 Kbps
  70. Channel(s) : 2 channels
  71. Channel positions : Front: L R
  72. Sampling rate : 48.0 KHz
  73. Compression mode : Lossy
  74. Stream size : 109 MiB (7%)
  75. Alignment : Split accross interleaves
  76. Interleave, duration : 42 ms (1.00 video frame)
  77. Interleave, preload duration : 500 ms
  78.  
  79. Audio #3
  80. ID : 3
  81. Format : AC-3
  82. Format/Info : Audio Coding 3
  83. Mode extension : CM (complete main)
  84. Format settings, Endianness : Big
  85. Codec ID : 2000
  86. Duration : 1h 19mn
  87. Bit rate mode : Constant
  88. Bit rate : 192 Kbps
  89. Channel(s) : 2 channels
  90. Channel positions : Front: L R
  91. Sampling rate : 48.0 KHz
  92. Compression mode : Lossy
  93. Stream size : 109 MiB (7%)
  94. Alignment : Split accross interleaves
  95. Interleave, duration : 42 ms (1.00 video frame)
  96. Interleave, preload duration : 500 ms
Advertisement
RAW Paste Data Copied
Advertisement