daily pastebin goal
43%
SHARE
TWEET

DNxHD mov

a guest Jan 22nd, 2018 349 Never
Upgrade to PRO!
ENDING IN00days00hours00mins00secs
 
  1.  
  2. General
  3. Complete name                            : C:\BMD_DR\P1010568.mov
  4. Format                                   : MPEG-4
  5. Commercial name                          : DNxHD 175x
  6. Format profile                           : QuickTime
  7. Codec ID                                 : qt   0000.02 (qt  )
  8. File size                                : 455 MiB
  9. Duration                                 : 21 s 522 ms
  10. Overall bit rate                         : 178 Mb/s
  11. Writing application                      : Lavf57.25.100
  12.  
  13. Video
  14. ID                                       : 1
  15. Format                                   : VC-3
  16. Commercial name                          : DNxHD 175x
  17. Format version                           : Version 1
  18. Format profile                           : HD@HQX
  19. Codec ID                                 : AVdn
  20. Codec ID/Info                            : Avid DNxHD
  21. Duration                                 : 21 s 522 ms
  22. Bit rate mode                            : Constant
  23. Bit rate                                 : 176 Mb/s
  24. Width                                    : 1 920 pixels
  25. Height                                   : 1 080 pixels
  26. Display aspect ratio                     : 16:9
  27. Frame rate mode                          : Constant
  28. Frame rate                               : 23.976 (24000/1001) FPS
  29. Color space                              : YUV
  30. Chroma subsampling                       : 4:2:2
  31. Bit depth                                : 10 bits
  32. Scan type                                : Progressive
  33. Bits/(Pixel*Frame)                       : 3.540
  34. Stream size                              : 452 MiB (99%)
  35. Language                                 : English
  36. Color primaries                          : BT.709
  37. Transfer characteristics                 : BT.709
  38. Matrix coefficients                      : BT.709
  39.  
  40. Audio
  41. ID                                       : 2
  42. Format                                   : PCM
  43. Format settings                          : Little / Signed
  44. Codec ID                                 : sowt
  45. Duration                                 : 21 s 522 ms
  46. Bit rate mode                            : Constant
  47. Bit rate                                 : 1 536 kb/s
  48. Channel(s)                               : 2 channels
  49. Channel positions                        : Front: L R
  50. Sampling rate                            : 48.0 kHz
  51. Bit depth                                : 16 bits
  52. Stream size                              : 3.94 MiB (1%)
  53. Language                                 : English
  54. Default                                  : Yes
  55. Alternate group                          : 1
  56.  
  57. Other
  58. ID                                       : 3
  59. Type                                     : Time code
  60. Format                                   : QuickTime TC
  61. Duration                                 : 21 s 522 ms
  62. Time code of first frame                 : 00:00:00:00
  63. Time code, striped                       : Yes
  64. Language                                 : English
  65. Default                                  : No
RAW Paste Data
We use cookies for various purposes including analytics. By continuing to use Pastebin, you agree to our use of cookies as described in the Cookies Policy. OK, I Understand
 
Top