Ledger Nano X - The secure hardware wallet
SHARE
TWEET

Untitled

a guest Feb 1st, 2020 75 Never
Not a member of Pastebin yet? Sign Up, it unlocks many cool features!
  1. Общее
  2. Уникальный идентификатор : 196224355679690907139941755744514634524 (0x939F6FAD90F5E653A0438051D726731C)
  3. Полное имя : Devil.in.a.Blue.Dress.1995.720p.BluRay.4xRus.3xUkr.Eng.HDCLUB-SbR.mkv
  4. Формат : Matroska
  5. Версия формата : Version 4 / Version 2
  6. Размер файла : 7,84 Гбайт
  7. Продолжительность : 1 ч. 41 м.
  8. Общий поток : 11,1 Мбит/сек
  9. Дата кодирования : UTC 2015-12-12 07:36:18
  10. Программа кодирования : mkvmerge v8.3.0 ('Over the Horizon') 64bit
  11. Библиотека кодирования : libebml v1.3.1 + libmatroska v1.4.2
  12. Обложка : Yes
  13. Attachments : cover.jpg
  14.  
  15. Видео
  16. Идентификатор : 1
  17. Формат : AVC
  18. Формат/Информация : Advanced Video Codec
  19. Профиль формата : High@L4.1
  20. Параметр CABAC формата : Да
  21. Параметр RefFrames формата : 9 кадров
  22. Идентификатор кодека : V_MPEG4/ISO/AVC
  23. Продолжительность : 1 ч. 41 м.
  24. Битрейт : 8197 Кбит/сек
  25. Ширина : 1280 пикселей
  26. Высота : 694 пикселя
  27. Соотношение сторон : 1,85:1
  28. Режим частоты кадров : Постоянный
  29. Частота кадров : 23,976 (24000/1001) кадра/сек
  30. Цветовое пространство : YUV
  31. Субдискретизация насыщенности : 4:2:0
  32. Битовая глубина : 8 бит
  33. Тип развёртки : Прогрессивная
  34. Бит/(Пиксели*Кадры) : 0.385
  35. Размер потока : 5,80 Гбайт (74%)
  36. Библиотека кодирования : x264 core 148 r2638+53 bb29004 t_mod_Custom [8-bit@all X86_64]
  37. Настройки программы : cabac=1 / ref=9 / deblock=1:-3:-3 / analyse=0x3:0x133 / me=umh / subme=11 / psy=1 / fade_compensate=0.00 / psy_rd=1.05:0.00 / mixed_ref=1 / me_range=24 / chroma_me=1 / trellis=2 / 8x8dct=1 / cqm=0 / deadzone=21,11 / fast_pskip=0 / chroma_qp_offset=-2 / threads=6 / lookahead_threads=1 / sliced_threads=0 / nr=0 / decimate=1 / interlaced=0 / bluray_compat=0 / constrained_intra=0 / fgo=0 / bframes=11 / b_pyramid=2 / b_adapt=2 / b_bias=0 / direct=3 / weightb=1 / open_gop=0 / weightp=2 / keyint=250 / keyint_min=23 / scenecut=40 / intra_refresh=0 / rc_lookahead=60 / rc=crf / mbtree=0 / crf=18.0000 / qcomp=0.60 / qpmin=0:0:0 / qpmax=69:69:69 / qpstep=4 / vbv_maxrate=62500 / vbv_bufsize=78125 / crf_max=0.0 / nal_hrd=none / filler=0 / ip_ratio=1.40 / pb_ratio=1.30 / aq=1:0.65 / aq-sensitivity=10.00 / aq-factor=1.00:1.00:1.00 / aq2=0 / aq3=0
  38. Язык : English
  39. Default : Да
  40. Forced : Нет
  41. Цветовой диапазон : Limited
  42. Основные цвета : BT.709
  43. Характеристики трансфера : BT.709
  44. Коэффициенты матрицы : BT.709
  45.  
  46. Аудио #1
  47. Идентификатор : 2
  48. Формат : AC-3
  49. Формат/Информация : Audio Coding 3
  50. Параметр Endianness формата : Big
  51. Идентификатор кодека : A_AC3
  52. Продолжительность : 1 ч. 41 м.
  53. Вид битрейта : Постоянный
  54. Битрейт : 640 Кбит/сек
  55. Каналы : 6 каналов
  56. Расположение каналов : Front: L C R, Side: L R, LFE
  57. Частота : 48,0 КГц
  58. Частота кадров : 31,250 кадров/сек (1536 SPF)
  59. Битовая глубина : 16 бит
  60. Метод сжатия : С потерями
  61. Размер потока : 464 Мбайт (6%)
  62. Заголовок : Многоголосый закадровый, Видеосервис
  63. Язык : Russian
  64. Default : Да
  65. Forced : Нет
  66.  
  67. Аудио #2
  68. Идентификатор : 3
  69. Формат : AC-3
  70. Формат/Информация : Audio Coding 3
  71. Параметр Endianness формата : Big
  72. Идентификатор кодека : A_AC3
  73. Продолжительность : 1 ч. 41 м.
  74. Вид битрейта : Постоянный
  75. Битрейт : 192 Кбит/сек
  76. Каналы : 2 канала
  77. Расположение каналов : Front: L R
  78. Частота : 48,0 КГц
  79. Частота кадров : 31,250 кадров/сек (1536 SPF)
  80. Битовая глубина : 16 бит
  81. Метод сжатия : С потерями
  82. Размер потока : 139 Мбайт (2%)
  83. Заголовок : Многоголосый закадровый, Кинопоказ
  84. Язык : Russian
  85. Default : Нет
  86. Forced : Нет
  87.  
  88. Аудио #3
  89. Идентификатор : 4
  90. Формат : AC-3
  91. Формат/Информация : Audio Coding 3
  92. Параметр Endianness формата : Big
  93. Идентификатор кодека : A_AC3
  94. Продолжительность : 1 ч. 41 м.
  95. Вид битрейта : Постоянный
  96. Битрейт : 192 Кбит/сек
  97. Каналы : 2 канала
  98. Расположение каналов : Front: L R
  99. Частота : 48,0 КГц
  100. Частота кадров : 31,250 кадров/сек (1536 SPF)
  101. Битовая глубина : 16 бит
  102. Метод сжатия : С потерями
  103. Размер потока : 139 Мбайт (2%)
  104. Заголовок : Многоголосый закадровый, СТС
  105. Язык : Russian
  106. Default : Нет
  107. Forced : Нет
  108.  
  109. Аудио #4
  110. Идентификатор : 5
  111. Формат : AC-3
  112. Формат/Информация : Audio Coding 3
  113. Параметр Endianness формата : Big
  114. Идентификатор кодека : A_AC3
  115. Продолжительность : 1 ч. 41 м.
  116. Вид битрейта : Постоянный
  117. Битрейт : 192 Кбит/сек
  118. Каналы : 2 канала
  119. Расположение каналов : Front: L R
  120. Частота : 48,0 КГц
  121. Частота кадров : 31,250 кадров/сек (1536 SPF)
  122. Битовая глубина : 16 бит
  123. Метод сжатия : С потерями
  124. Размер потока : 139 Мбайт (2%)
  125. Заголовок : Одноголосый закадровый, П.Карцев
  126. Язык : Russian
  127. Default : Нет
  128. Forced : Нет
  129.  
  130. Аудио #5
  131. Идентификатор : 6
  132. Формат : AC-3
  133. Формат/Информация : Audio Coding 3
  134. Параметр Endianness формата : Big
  135. Идентификатор кодека : A_AC3
  136. Продолжительность : 1 ч. 41 м.
  137. Вид битрейта : Постоянный
  138. Битрейт : 192 Кбит/сек
  139. Каналы : 2 канала
  140. Расположение каналов : Front: L R
  141. Частота : 48,0 КГц
  142. Частота кадров : 31,250 кадров/сек (1536 SPF)
  143. Битовая глубина : 16 бит
  144. Метод сжатия : С потерями
  145. Размер потока : 139 Мбайт (2%)
  146. Заголовок : Двухголосый закадровый, Новый канал
  147. Язык : Ukrainian
  148. Default : Нет
  149. Forced : Нет
  150.  
  151. Аудио #6
  152. Идентификатор : 7
  153. Формат : AC-3
  154. Формат/Информация : Audio Coding 3
  155. Параметр Endianness формата : Big
  156. Идентификатор кодека : A_AC3
  157. Продолжительность : 1 ч. 41 м.
  158. Вид битрейта : Постоянный
  159. Битрейт : 640 Кбит/сек
  160. Каналы : 6 каналов
  161. Расположение каналов : Front: L C R, Side: L R, LFE
  162. Частота : 48,0 КГц
  163. Частота кадров : 31,250 кадров/сек (1536 SPF)
  164. Битовая глубина : 16 бит
  165. Метод сжатия : С потерями
  166. Размер потока : 464 Мбайт (6%)
  167. Заголовок : Многоголосый закадровый, Интер
  168. Язык : Ukrainian
  169. Default : Нет
  170. Forced : Нет
  171.  
  172. Аудио #7
  173. Идентификатор : 8
  174. Формат : AC-3
  175. Формат/Информация : Audio Coding 3
  176. Параметр Endianness формата : Big
  177. Идентификатор кодека : A_AC3
  178. Продолжительность : 1 ч. 41 м.
  179. Вид битрейта : Постоянный
  180. Битрейт : 192 Кбит/сек
  181. Каналы : 2 канала
  182. Расположение каналов : Front: L R
  183. Частота : 48,0 КГц
  184. Частота кадров : 31,250 кадров/сек (1536 SPF)
  185. Битовая глубина : 16 бит
  186. Метод сжатия : С потерями
  187. Размер потока : 139 Мбайт (2%)
  188. Заголовок : Двухголосый закадровый, 1+1
  189. Язык : Ukrainian
  190. Default : Нет
  191. Forced : Нет
  192.  
  193. Аудио #8
  194. Идентификатор : 9
  195. Формат : AC-3
  196. Формат/Информация : Audio Coding 3
  197. Параметр Endianness формата : Big
  198. Идентификатор кодека : A_AC3
  199. Продолжительность : 1 ч. 41 м.
  200. Вид битрейта : Постоянный
  201. Битрейт : 640 Кбит/сек
  202. Каналы : 6 каналов
  203. Расположение каналов : Front: L C R, Side: L R, LFE
  204. Частота : 48,0 КГц
  205. Частота кадров : 31,250 кадров/сек (1536 SPF)
  206. Битовая глубина : 16 бит
  207. Метод сжатия : С потерями
  208. Размер потока : 464 Мбайт (6%)
  209. Язык : English
  210. Default : Нет
  211. Forced : Нет
  212.  
  213. Текст
  214. Идентификатор : 10
  215. Формат : UTF-8
  216. Идентификатор кодека : S_TEXT/UTF8
  217. Идентификатор кодека/Информация : UTF-8 Plain Text
  218. Продолжительность : 1 ч. 40 м.
  219. Битрейт : 68 бит/сек
  220. ElementCount : 1200
  221. Размер потока : 50,0 Кбайт (0%)
  222. Язык : English
  223. Default : Нет
  224. Forced : Нет
  225.  
  226. Меню
  227. 00:00:00.000 : en:00:00:00.000
  228. 00:04:31.228 : en:00:04:31.228
  229. 00:08:57.537 : en:00:08:57.537
  230. 00:13:01.572 : en:00:13:01.572
  231. 00:17:46.315 : en:00:17:46.315
  232. 00:21:40.048 : en:00:21:40.048
  233. 00:24:15.036 : en:00:24:15.036
  234. 00:30:39.336 : en:00:30:39.336
  235. 00:35:09.106 : en:00:35:09.106
  236. 00:39:19.481 : en:00:39:19.481
  237. 00:42:10.527 : en:00:42:10.527
  238. 00:46:37.251 : en:00:46:37.251
  239. 00:51:36.342 : en:00:51:36.342
  240. 00:56:50.697 : en:00:56:50.697
  241. 00:58:30.172 : en:00:58:30.172
  242. 01:02:53.686 : en:01:02:53.686
  243. 01:08:15.800 : en:01:08:15.800
  244. 01:12:44.109 : en:01:12:44.109
  245. 01:14:45.314 : en:01:14:45.314
  246. 01:20:33.286 : en:01:20:33.286
  247. 01:24:26.394 : en:01:24:26.394
  248. 01:29:09.176 : en:01:29:09.176
  249. 01:34:37.087 : en:01:34:37.087
  250. 01:37:54.702 : en:01:37:54.702
RAW Paste Data
We use cookies for various purposes including analytics. By continuing to use Pastebin, you agree to our use of cookies as described in the Cookies Policy. OK, I Understand
Top