Ledger Nano X - The secure hardware wallet
SHARE
TWEET

blue.velvet.custom

a guest Apr 2nd, 2020 112 Never
Not a member of Pastebin yet? Sign Up, it unlocks many cool features!
  1. General
  2. Unique ID                   : 121067998017553548216899557947634368853 (0x5B14D9282698AF27D98FB5156F804155)
  3. Complete name               : Blue.Velvet.1986.REMASTERED.MULTi.1080p.BluRay.REMUX.AVC-BEO.mkv
  4. Format                      : Matroska
  5. Format version              : Version 4
  6. File size                   : 25.8 GiB
  7. Duration                    : 2 h 0 min
  8. Overall bit rate mode       : Variable
  9. Overall bit rate            : 30.7 Mb/s
  10. Encoded date                : UTC 2020-04-02 09:46:25
  11. Writing application         : mkvmerge v35.0.0 ('All The Love In The World') 64-bit
  12. Writing library             : libebml v1.3.9 + libmatroska v1.5.2
  13.  
  14. Video
  15. ID                          : 1
  16. Format                      : AVC
  17. Format/Info                 : Advanced Video Codec
  18. Format profile              : High@L4.1
  19. Format settings             : CABAC / 4 Ref Frames
  20. Format settings, CABAC      : Yes
  21. Format settings, ReFrames   : 4 frames
  22. Codec ID                    : V_MPEG4/ISO/AVC
  23. Duration                    : 2 h 0 min
  24. Bit rate mode               : Variable
  25. Bit rate                    : 24.7 Mb/s
  26. Maximum bit rate            : 37.0 Mb/s
  27. Width                       : 1 920 pixels
  28. Height                      : 1 080 pixels
  29. Display aspect ratio        : 16:9
  30. Frame rate mode             : Constant
  31. Frame rate                  : 23.976 (24000/1001) FPS
  32. Color space                 : YUV
  33. Chroma subsampling          : 4:2:0
  34. Bit depth                   : 8 bits
  35. Scan type                   : Progressive
  36. Bits/(Pixel*Frame)          : 0.498
  37. Stream size                 : 20.8 GiB (81%)
  38. Language                    : English
  39. Default                     : Yes
  40. Forced                      : No
  41.  
  42. Audio #1
  43. ID                          : 2
  44. Format                      : DTS
  45. Format/Info                 : Digital Theater Systems
  46. Codec ID                    : A_DTS
  47. Duration                    : 2 h 0 min
  48. Bit rate mode               : Constant
  49. Bit rate                    : 768 kb/s
  50. Channel(s)                  : 6 channels
  51. Channel layout              : C L R Ls Rs LFE
  52. Sampling rate               : 48.0 kHz
  53. Frame rate                  : 93.750 FPS (512 SPF)
  54. Bit depth                   : 24 bits
  55. Compression mode            : Lossy
  56. Stream size                 : 662 MiB (3%)
  57. Title                       : VFI
  58. Language                    : French
  59. Default                     : Yes
  60. Forced                      : No
  61.  
  62. Audio #2
  63. ID                          : 3
  64. Format                      : DTS XLL
  65. Format/Info                 : Digital Theater Systems
  66. Commercial name             : DTS-HD Master Audio
  67. Codec ID                    : A_DTS
  68. Duration                    : 2 h 0 min
  69. Bit rate mode               : Variable
  70. Bit rate                    : 2 071 kb/s
  71. Channel(s)                  : 2 channels
  72. Sampling rate               : 48.0 kHz
  73. Frame rate                  : 93.750 FPS (512 SPF)
  74. Bit depth                   : 24 bits
  75. Compression mode            : Lossless
  76. Stream size                 : 1.74 GiB (7%)
  77. Title                       : English / DTS-HD Master Audio / 2.0 / 48 kHz / 2071 kbps (original 2.0 surround soundĀ­track)
  78. Language                    : English
  79. Default                     : No
  80. Forced                      : No
  81.  
  82. Audio #3
  83. ID                          : 4
  84. Format                      : DTS XLL
  85. Format/Info                 : Digital Theater Systems
  86. Commercial name             : DTS-HD Master Audio
  87. Codec ID                    : A_DTS
  88. Duration                    : 2 h 0 min
  89. Bit rate mode               : Variable
  90. Bit rate                    : 3 097 kb/s
  91. Channel(s)                  : 6 channels
  92. Channel layout              : C L R Ls Rs LFE
  93. Sampling rate               : 48.0 kHz
  94. Frame rate                  : 93.750 FPS (512 SPF)
  95. Bit depth                   : 24 bits
  96. Compression mode            : Lossless
  97. Stream size                 : 2.61 GiB (10%)
  98. Title                       : English / DTS-HD Master Audio / 5.1 / 48 kHz / 3097 kbps
  99. Language                    : English
  100. Default                     : No
  101. Forced                      : No
  102.  
  103. Text #1
  104. ID                          : 5
  105. Format                      : PGS
  106. Muxing mode                 : zlib
  107. Codec ID                    : S_HDMV/PGS
  108. Codec ID/Info               : Picture based subtitle format used on BDs/HD-DVDs
  109. Duration                    : 12 min 41 s
  110. Bit rate                    : 879 b/s
  111. Count of elements           : 6
  112. Stream size                 : 81.7 KiB (0%)
  113. Title                       : Forces PGS
  114. Language                    : French
  115. Default                     : Yes
  116. Forced                      : No
  117.  
  118. Text #2
  119. ID                          : 6
  120. Format                      : PGS
  121. Muxing mode                 : zlib
  122. Codec ID                    : S_HDMV/PGS
  123. Codec ID/Info               : Picture based subtitle format used on BDs/HD-DVDs
  124. Duration                    : 1 h 56 min
  125. Bit rate                    : 21.2 kb/s
  126. Count of elements           : 1716
  127. Stream size                 : 17.7 MiB (0%)
  128. Title                       : Complets PGS
  129. Language                    : French
  130. Default                     : No
  131. Forced                      : No
  132.  
  133. Text #3
  134. ID                          : 7
  135. Format                      : PGS
  136. Muxing mode                 : zlib
  137. Codec ID                    : S_HDMV/PGS
  138. Codec ID/Info               : Picture based subtitle format used on BDs/HD-DVDs
  139. Duration                    : 1 h 57 min
  140. Bit rate                    : 36.3 kb/s
  141. Count of elements           : 2664
  142. Stream size                 : 30.5 MiB (0%)
  143. Title                       : SDH
  144. Language                    : English
  145. Default                     : No
  146. Forced                      : No
  147.  
  148. Menu
  149. 00:00:00.000                : :Chapitre 01
  150. 00:01:48.608                : :Chapitre 02
  151. 00:04:53.335                : :Chapitre 03
  152. 00:09:10.008                : :Chapitre 04
  153. 00:15:55.329                : :Chapitre 05
  154. 00:19:52.066                : :Chapitre 06
  155. 00:24:36.350                : :Chapitre 07
  156. 00:27:31.108                : :Chapitre 08
  157. 00:29:59.131                : :Chapitre 09
  158. 00:34:39.953                : :Chapitre 10
  159. 00:41:39.247                : :Chapitre 11
  160. 00:47:41.776                : :Chapitre 12
  161. 00:53:06.433                : :Chapitre 13
  162. 00:57:59.017                : :Chapitre 14
  163. 01:02:29.996                : :Chapitre 15
  164. 01:06:37.535                : :Chapitre 16
  165. 01:10:51.164                : :Chapitre 17
  166. 01:13:15.683                : :Chapitre 18
  167. 01:21:16.705                : :Chapitre 19
  168. 01:27:07.722                : :Chapitre 20
  169. 01:34:12.355                : :Chapitre 21
  170. 01:36:44.173                : :Chapitre 22
  171. 01:39:42.852                : :Chapitre 23
  172. 01:42:29.435                : :Chapitre 24
  173. 01:46:28.757                : :Chapitre 25
  174. 01:50:21.031                : :Chapitre 26
  175. 01:55:28.171                : :Chapitre 27
  176. 01:59:14.439                : :Chapitre 28
RAW Paste Data
We use cookies for various purposes including analytics. By continuing to use Pastebin, you agree to our use of cookies as described in the Cookies Policy. OK, I Understand
Top