SHARE
TWEET

Untitled

a guest Jan 10th, 2017 71 Never
Not a member of Pastebin yet? Sign Up, it unlocks many cool features!
  1. Общее
  2. Уникальный идентификатор                 : 244754881154339813576877167236941451032 (0xB8221351ACBE4BD9938349BB04A18F18)
  3. Полное имя                               : F:\Video\The.Light.Between.Oceans.2016.D.BDRip.1080p.ExKinoRay.mkv
  4. Формат                                   : Matroska
  5. Версия формата                           : Version 4 / Version 2
  6. Размер файла                             : 12,8 Гбайт
  7. Продолжительность                        : 2 ч. 12 м.
  8. Общий поток                              : 13,8 Мбит/сек
  9. Дата кодирования                         : UTC 2017-01-11 00:06:34
  10. Программа кодирования                    : mkvmerge v8.3.0 ('Over the Horizon') 64bit
  11. Библиотека кодирования                   : libebml v1.3.1 + libmatroska v1.4.2
  12.  
  13. Видео
  14. Идентификатор                            : 1
  15. Формат                                   : AVC
  16. Формат/Информация                        : Advanced Video Codec
  17. Профиль формата                          : High@L4.1
  18. Параметр CABAC формата                   : Да
  19. Параметр ReFrames формата                : 5 кадров
  20. Идентификатор кодека                     : V_MPEG4/ISO/AVC
  21. Продолжительность                        : 2 ч. 12 м.
  22. Битрейт                                  : 11,9 Мбит/сек
  23. Ширина                                   : 1920 пикселей
  24. Высота                                   : 800 пикселей
  25. Соотношение сторон                       : 2,40:1
  26. Режим частоты кадров                     : Постоянный
  27. Частота кадров                           : 23,976 (24000/1001) кадра/сек
  28. Цветовое пространство                    : YUV
  29. Субдискретизация насыщенности            : 4:2:0
  30. Битовая глубина                          : 8 бит
  31. Тип развёртки                            : Прогрессивная
  32. Бит/(Пиксели*Кадры)                      : 0.322
  33. Размер потока                            : 11,0 Гбайт (86%)
  34. Библиотека кодирования                   : x264 core 148 r2699+6+41 29a38aa Yuuki [8-bit@4:2:0 X86_64][GCC 5.3.0]
  35. Настройки программы                      : cabac=1 / ref=5 / deblock=1:-3:-3 / analyse=0x3:0x113 / me=umh / subme=11 / psy=1 / fade_compensate=0.00 / psy_rd=1.00:0.05 / mixed_ref=1 / me_range=32 / chroma_me=1 / trellis=2 / 8x8dct=1 / cqm=0 / deadzone=21,11 / fast_pskip=0 / chroma_qp_offset=-2 / threads=24 / lookahead_threads=4 / sliced_threads=0 / nr=0 / decimate=1 / interlaced=0 / bluray_compat=0 / constrained_intra=0 / fgo=0 / bframes=8 / b_pyramid=2 / b_adapt=2 / b_bias=0 / direct=3 / weightb=1 / open_gop=0 / weightp=2 / keyint=250 / keyint_min=23 / scenecut=40 / intra_refresh=0 / rc_lookahead=40 / rc=crf / mbtree=0 / crf=18.6000 / qcomp=0.60 / qpmin=0:0:0 / qpmax=69:69:69 / qpstep=4 / vbv_maxrate=50000 / vbv_bufsize=40000 / crf_max=0.0 / nal_hrd=none / filler=0 / ip_ratio=1.40 / pb_ratio=1.30 / aq=3:0.90
  36. Язык                                     : English
  37. Default                                  : Да
  38. Forced                                   : Нет
  39.  
  40. Аудио #1
  41. Идентификатор                            : 2
  42. Формат                                   : AC-3
  43. Формат/Информация                        : Audio Coding 3
  44. Расширение режима                        : CM (complete main)
  45. Параметр Endianness формата              : Big
  46. Идентификатор кодека                     : A_AC3
  47. Продолжительность                        : 2 ч. 12 м.
  48. Вид битрейта                             : Постоянный
  49. Битрейт                                  : 384 Кбит/сек
  50. Каналы                                   : 6 каналов
  51. Расположение каналов                     : Front: L C R, Side: L R, LFE
  52. Частота                                  : 48,0 КГц
  53. Частота кадров                           : 31,250 кадров/сек (1536 spf)
  54. Битовая глубина                          : 16 бит
  55. Метод сжатия                             : С потерями
  56. Размер потока                            : 365 Мбайт (3%)
  57. Язык                                     : Russian
  58. Default                                  : Да
  59. Forced                                   : Нет
  60.  
  61. Аудио #2
  62. Идентификатор                            : 3
  63. Формат                                   : DTS
  64. Формат/Информация                        : Digital Theater Systems
  65. Режим                                    : 16
  66. Параметр Endianness формата              : Big
  67. Идентификатор кодека                     : A_DTS
  68. Продолжительность                        : 2 ч. 12 м.
  69. Вид битрейта                             : Постоянный
  70. Битрейт                                  : 1509 Кбит/сек
  71. Каналы                                   : 6 каналов
  72. Расположение каналов                     : Front: L C R, Side: L R, LFE
  73. Частота                                  : 48,0 КГц
  74. Частота кадров                           : 93,750 кадра/сек (512 spf)
  75. Битовая глубина                          : 24 бит
  76. Метод сжатия                             : С потерями
  77. Размер потока                            : 1,40 Гбайт (11%)
  78. Язык                                     : English
  79. Default                                  : Нет
  80. Forced                                   : Нет
  81.  
  82. Текст #1
  83. Идентификатор                            : 4
  84. Формат                                   : UTF-8
  85. Идентификатор кодека                     : S_TEXT/UTF8
  86. Идентификатор кодека/Информация          : UTF-8 Plain Text
  87. Продолжительность                        : 31 м. 28 с.
  88. Битрейт                                  : 2 бит/сек
  89. Count of elements                        : 6
  90. Размер потока                            : 489 байт (0%)
  91. Заголовок                                : Forced [iTunes]
  92. Язык                                     : Russian
  93. Default                                  : Да
  94. Forced                                   : Нет
  95.  
  96. Текст #2
  97. Идентификатор                            : 5
  98. Формат                                   : UTF-8
  99. Идентификатор кодека                     : S_TEXT/UTF8
  100. Идентификатор кодека/Информация          : UTF-8 Plain Text
  101. Продолжительность                        : 2 ч. 5 м.
  102. Битрейт                                  : 62 бит/сек
  103. Count of elements                        : 1293
  104. Размер потока                            : 57,0 Кбайт (0%)
  105. Заголовок                                : Full [iTunes]
  106. Язык                                     : Russian
  107. Default                                  : Нет
  108. Forced                                   : Нет
  109.  
  110. Текст #3
  111. Идентификатор                            : 6
  112. Формат                                   : UTF-8
  113. Идентификатор кодека                     : S_TEXT/UTF8
  114. Идентификатор кодека/Информация          : UTF-8 Plain Text
  115. Продолжительность                        : 2 ч. 6 м.
  116. Битрейт                                  : 47 бит/сек
  117. Count of elements                        : 1634
  118. Размер потока                            : 44,1 Кбайт (0%)
  119. Язык                                     : English
  120. Default                                  : Нет
  121. Forced                                   : Нет
  122.  
  123. Меню
  124. 00:00:00.000                             : en:00:00:00.000
  125. 00:04:55.128                             : en:00:04:55.128
  126. 00:11:38.531                             : en:00:11:38.531
  127. 00:17:30.007                             : en:00:17:30.007
  128. 00:23:07.469                             : en:00:23:07.469
  129. 00:29:35.816                             : en:00:29:35.816
  130. 00:35:21.953                             : en:00:35:21.953
  131. 00:42:35.678                             : en:00:42:35.678
  132. 00:49:51.822                             : en:00:49:51.822
  133. 00:55:14.186                             : en:00:55:14.186
  134. 00:59:26.062                             : en:00:59:26.062
  135. 01:05:48.027                             : en:01:05:48.027
  136. 01:10:52.957                             : en:01:10:52.957
  137. 01:13:14.724                             : en:01:13:14.724
  138. 01:22:34.032                             : en:01:22:34.032
  139. 01:31:42.956                             : en:01:31:42.956
  140. 01:42:29.101                             : en:01:42:29.101
  141. 01:51:31.018                             : en:01:51:31.018
  142. 02:01:29.324                             : en:02:01:29.324
  143. 02:07:08.621                             : en:02:07:08.621
RAW Paste Data
Pastebin PRO Summer Special!
Get 40% OFF on Pastebin PRO accounts!
Top