SHARE
TWEET

Platoon.1986.25th.Anniversary.REMUX.1080p.EUR.BluRay.DTS-HD.MA.5.1.AVC-LEGi0N

a guest Jun 14th, 2019 35 Never
Not a member of Pastebin yet? Sign Up, it unlocks many cool features!
  1. General
  2. Unique ID                                : 199308151061561661136460899129354167916 (0x95F15A876DF9F2A983C4568E8BB1266C)
  3. Complete name                            : Platoon.1986.25th.Anniversary.REMUX.1080p.EUR.BluRay.DTS-HD.MA.5.1.AVC-LEGi0N.mkv
  4. Format                                   : Matroska
  5. Format version                           : Version 4
  6. File size                                : 25.4 GiB
  7. Duration                                 : 1 h 59 min
  8. Overall bit rate mode                    : Variable
  9. Overall bit rate                         : 30.4 Mb/s
  10. Encoded date                             : UTC 2015-06-21 17:19:01
  11. Writing application                      : mkvmerge v7.9.0 ('Birds') 64bit
  12. Writing library                          : libebml v1.3.1 + libmatroska v1.4.2
  13.  
  14. Video
  15. ID                                       : 1
  16. Format                                   : AVC
  17. Format/Info                              : Advanced Video Codec
  18. Format profile                           : High@L4.1
  19. Format settings                          : CABAC / 4 Ref Frames
  20. Format settings, CABAC                   : Yes
  21. Format settings, Reference frames        : 4 frames
  22. Codec ID                                 : V_MPEG4/ISO/AVC
  23. Duration                                 : 1 h 59 min
  24. Bit rate mode                            : Variable
  25. Bit rate                                 : 26.6 Mb/s
  26. Maximum bit rate                         : 29.0 Mb/s
  27. Width                                    : 1 920 pixels
  28. Height                                   : 1 080 pixels
  29. Display aspect ratio                     : 16:9
  30. Frame rate mode                          : Constant
  31. Frame rate                               : 23.976 (24000/1001) FPS
  32. Color space                              : YUV
  33. Chroma subsampling                       : 4:2:0
  34. Bit depth                                : 8 bits
  35. Scan type                                : Progressive
  36. Bits/(Pixel*Frame)                       : 0.534
  37. Stream size                              : 22.2 GiB (87%)
  38. Title                                    : MPEG-4 AVC Video 26708 kbps 1080p  23.976 fps  16.9  High Profile 4.1
  39. Language                                 : English
  40. Default                                  : Yes
  41. Forced                                   : No
  42. Color range                              : Limited
  43. Color primaries                          : BT.709
  44. Transfer characteristics                 : BT.709
  45. Matrix coefficients                      : BT.709
  46.  
  47. Audio #1
  48. ID                                       : 2
  49. Format                                   : DTS XLL
  50. Format/Info                              : Digital Theater Systems
  51. Commercial name                          : DTS-HD Master Audio
  52. Codec ID                                 : A_DTS
  53. Duration                                 : 1 h 59 min
  54. Bit rate mode                            : Variable
  55. Bit rate                                 : 2 024 kb/s
  56. Channel(s)                               : 6 channels
  57. Channel layout                           : C L R Ls Rs LFE
  58. Sampling rate                            : 48.0 kHz
  59. Frame rate                               : 93.750 FPS (512 SPF)
  60. Bit depth                                : 16 bits
  61. Compression mode                         : Lossless
  62. Stream size                              : 1.69 GiB (7%)
  63. Title                                    : DTS-HD MA 5.1  48 kHz  2024 kbps  16-bit (DTS Core 5.1  48 kHz  1509 kbps  16-bit)
  64. Language                                 : English
  65. Default                                  : Yes
  66. Forced                                   : No
  67.  
  68. Audio #2
  69. ID                                       : 3
  70. Format                                   : AC-3
  71. Format/Info                              : Audio Coding 3
  72. Commercial name                          : Dolby Digital
  73. Codec ID                                 : A_AC3
  74. Duration                                 : 1 h 59 min
  75. Bit rate mode                            : Constant
  76. Bit rate                                 : 448 kb/s
  77. Channel(s)                               : 4 channels
  78. Channel layout                           : L R C Cb
  79. Sampling rate                            : 48.0 kHz
  80. Frame rate                               : 31.250 FPS (1536 SPF)
  81. Bit depth                                : 16 bits
  82. Compression mode                         : Lossy
  83. Stream size                              : 384 MiB (1%)
  84. Title                                    : (Original Audio) Dolby Digital Audio 4.0  48 kHz  448 kbps  DN -4dB
  85. Language                                 : English
  86. Service kind                             : Complete Main
  87. Default                                  : No
  88. Forced                                   : No
  89.  
  90. Audio #3
  91. ID                                       : 4
  92. Format                                   : AC-3
  93. Format/Info                              : Audio Coding 3
  94. Commercial name                          : Dolby Digital
  95. Codec ID                                 : A_AC3
  96. Duration                                 : 1 h 59 min
  97. Bit rate mode                            : Constant
  98. Bit rate                                 : 224 kb/s
  99. Channel(s)                               : 2 channels
  100. Channel layout                           : L R
  101. Sampling rate                            : 48.0 kHz
  102. Frame rate                               : 31.250 FPS (1536 SPF)
  103. Bit depth                                : 16 bits
  104. Compression mode                         : Lossy
  105. Stream size                              : 192 MiB (1%)
  106. Title                                    : Commentary with director Oliver Stone
  107. Language                                 : English
  108. Service kind                             : Complete Main
  109. Default                                  : No
  110. Forced                                   : No
  111.  
  112. Audio #4
  113. ID                                       : 5
  114. Format                                   : AC-3
  115. Format/Info                              : Audio Coding 3
  116. Commercial name                          : Dolby Digital
  117. Codec ID                                 : A_AC3
  118. Duration                                 : 1 h 59 min
  119. Bit rate mode                            : Constant
  120. Bit rate                                 : 224 kb/s
  121. Channel(s)                               : 2 channels
  122. Channel layout                           : L R
  123. Sampling rate                            : 48.0 kHz
  124. Frame rate                               : 31.250 FPS (1536 SPF)
  125. Bit depth                                : 16 bits
  126. Compression mode                         : Lossy
  127. Stream size                              : 192 MiB (1%)
  128. Title                                    : Commentary with military advisor Dale Dye
  129. Language                                 : English
  130. Service kind                             : Complete Main
  131. Default                                  : No
  132. Forced                                   : No
  133.  
  134. Text #1
  135. ID                                       : 6
  136. Format                                   : PGS
  137. Codec ID                                 : S_HDMV/PGS
  138. Codec ID/Info                            : Picture based subtitle format used on BDs/HD-DVDs
  139. Duration                                 : 1 h 59 min
  140. Bit rate                                 : 20.6 kb/s
  141. Count of elements                        : 2538
  142. Stream size                              : 17.6 MiB (0%)
  143. Title                                    : Chinese Cantonese
  144. Language                                 : Chinese
  145. Default                                  : No
  146. Forced                                   : No
  147.  
  148. Text #2
  149. ID                                       : 7
  150. Format                                   : PGS
  151. Codec ID                                 : S_HDMV/PGS
  152. Codec ID/Info                            : Picture based subtitle format used on BDs/HD-DVDs
  153. Duration                                 : 1 h 59 min
  154. Bit rate                                 : 18.3 kb/s
  155. Count of elements                        : 2162
  156. Stream size                              : 15.6 MiB (0%)
  157. Title                                    : Chinese Mandarin Traditional
  158. Language                                 : Chinese
  159. Default                                  : No
  160. Forced                                   : No
  161.  
  162. Text #3
  163. ID                                       : 8
  164. Format                                   : PGS
  165. Codec ID                                 : S_HDMV/PGS
  166. Codec ID/Info                            : Picture based subtitle format used on BDs/HD-DVDs
  167. Duration                                 : 1 h 59 min
  168. Bit rate                                 : 26.8 kb/s
  169. Count of elements                        : 1921
  170. Stream size                              : 22.9 MiB (0%)
  171. Title                                    : Czech
  172. Language                                 : Czech
  173. Default                                  : No
  174. Forced                                   : No
  175.  
  176. Text #4
  177. ID                                       : 9
  178. Format                                   : PGS
  179. Codec ID                                 : S_HDMV/PGS
  180. Codec ID/Info                            : Picture based subtitle format used on BDs/HD-DVDs
  181. Duration                                 : 1 h 59 min
  182. Bit rate                                 : 30.6 kb/s
  183. Count of elements                        : 2534
  184. Stream size                              : 26.0 MiB (0%)
  185. Title                                    : Danish
  186. Language                                 : Danish
  187. Default                                  : No
  188. Forced                                   : No
  189.  
  190. Text #5
  191. ID                                       : 10
  192. Format                                   : PGS
  193. Codec ID                                 : S_HDMV/PGS
  194. Codec ID/Info                            : Picture based subtitle format used on BDs/HD-DVDs
  195. Duration                                 : 1 h 59 min
  196. Bit rate                                 : 28.2 kb/s
  197. Count of elements                        : 2536
  198. Stream size                              : 24.0 MiB (0%)
  199. Title                                    : Dutch
  200. Language                                 : Dutch
  201. Default                                  : No
  202. Forced                                   : No
  203.  
  204. Text #6
  205. ID                                       : 11
  206. Format                                   : PGS
  207. Codec ID                                 : S_HDMV/PGS
  208. Codec ID/Info                            : Picture based subtitle format used on BDs/HD-DVDs
  209. Duration                                 : 1 h 57 min
  210. Bit rate                                 : 37.1 kb/s
  211. Count of elements                        : 2884
  212. Stream size                              : 31.3 MiB (0%)
  213. Title                                    : English SDH
  214. Language                                 : English
  215. Default                                  : No
  216. Forced                                   : No
  217.  
  218. Text #7
  219. ID                                       : 12
  220. Format                                   : PGS
  221. Codec ID                                 : S_HDMV/PGS
  222. Codec ID/Info                            : Picture based subtitle format used on BDs/HD-DVDs
  223. Duration                                 : 1 h 59 min
  224. Bit rate                                 : 28.1 kb/s
  225. Count of elements                        : 2536
  226. Stream size                              : 24.0 MiB (0%)
  227. Title                                    : Finnish
  228. Language                                 : Finnish
  229. Default                                  : No
  230. Forced                                   : No
  231.  
  232. Text #8
  233. ID                                       : 13
  234. Format                                   : PGS
  235. Codec ID                                 : S_HDMV/PGS
  236. Codec ID/Info                            : Picture based subtitle format used on BDs/HD-DVDs
  237. Duration                                 : 1 h 59 min
  238. Bit rate                                 : 30.3 kb/s
  239. Count of elements                        : 2536
  240. Stream size                              : 25.8 MiB (0%)
  241. Title                                    : French
  242. Language                                 : French
  243. Default                                  : No
  244. Forced                                   : No
  245.  
  246. Text #9
  247. ID                                       : 14
  248. Format                                   : PGS
  249. Codec ID                                 : S_HDMV/PGS
  250. Codec ID/Info                            : Picture based subtitle format used on BDs/HD-DVDs
  251. Duration                                 : 1 h 59 min
  252. Bit rate                                 : 34.4 kb/s
  253. Count of elements                        : 2534
  254. Stream size                              : 29.3 MiB (0%)
  255. Title                                    : German
  256. Language                                 : German
  257. Default                                  : No
  258. Forced                                   : No
  259.  
  260. Text #10
  261. ID                                       : 15
  262. Format                                   : PGS
  263. Codec ID                                 : S_HDMV/PGS
  264. Codec ID/Info                            : Picture based subtitle format used on BDs/HD-DVDs
  265. Duration                                 : 1 h 59 min
  266. Bit rate                                 : 27.9 kb/s
  267. Count of elements                        : 1923
  268. Stream size                              : 23.7 MiB (0%)
  269. Title                                    : Greek
  270. Language                                 : Greek
  271. Default                                  : No
  272. Forced                                   : No
  273.  
  274. Text #11
  275. ID                                       : 16
  276. Format                                   : PGS
  277. Codec ID                                 : S_HDMV/PGS
  278. Codec ID/Info                            : Picture based subtitle format used on BDs/HD-DVDs
  279. Duration                                 : 1 h 59 min
  280. Bit rate                                 : 27.4 kb/s
  281. Count of elements                        : 1923
  282. Stream size                              : 23.3 MiB (0%)
  283. Title                                    : Hungarian
  284. Language                                 : Hungarian
  285. Default                                  : No
  286. Forced                                   : No
  287.  
  288. Text #12
  289. ID                                       : 17
  290. Format                                   : PGS
  291. Codec ID                                 : S_HDMV/PGS
  292. Codec ID/Info                            : Picture based subtitle format used on BDs/HD-DVDs
  293. Duration                                 : 1 h 59 min
  294. Bit rate                                 : 30.4 kb/s
  295. Count of elements                        : 2534
  296. Stream size                              : 25.9 MiB (0%)
  297. Title                                    : Italian
  298. Language                                 : Italian
  299. Default                                  : No
  300. Forced                                   : No
  301.  
  302. Text #13
  303. ID                                       : 18
  304. Format                                   : PGS
  305. Codec ID                                 : S_HDMV/PGS
  306. Codec ID/Info                            : Picture based subtitle format used on BDs/HD-DVDs
  307. Duration                                 : 1 h 55 min
  308. Bit rate                                 : 90 b/s
  309. Count of elements                        : 6
  310. Stream size                              : 76.3 KiB (0%)
  311. Title                                    : Japanese Forced
  312. Language                                 : Japanese
  313. Default                                  : No
  314. Forced                                   : No
  315.  
  316. Text #14
  317. ID                                       : 19
  318. Format                                   : PGS
  319. Codec ID                                 : S_HDMV/PGS
  320. Codec ID/Info                            : Picture based subtitle format used on BDs/HD-DVDs
  321. Duration                                 : 1 h 55 min
  322. Bit rate                                 : 15.7 kb/s
  323. Count of elements                        : 1812
  324. Stream size                              : 12.9 MiB (0%)
  325. Title                                    : Japanese
  326. Language                                 : Japanese
  327. Default                                  : No
  328. Forced                                   : No
  329.  
  330. Text #15
  331. ID                                       : 20
  332. Format                                   : PGS
  333. Codec ID                                 : S_HDMV/PGS
  334. Codec ID/Info                            : Picture based subtitle format used on BDs/HD-DVDs
  335. Duration                                 : 1 h 59 min
  336. Bit rate                                 : 16.8 kb/s
  337. Count of elements                        : 2540
  338. Stream size                              : 14.3 MiB (0%)
  339. Title                                    : Korean
  340. Language                                 : Korean
  341. Default                                  : No
  342. Forced                                   : No
  343.  
  344. Text #16
  345. ID                                       : 21
  346. Format                                   : PGS
  347. Codec ID                                 : S_HDMV/PGS
  348. Codec ID/Info                            : Picture based subtitle format used on BDs/HD-DVDs
  349. Duration                                 : 1 h 59 min
  350. Bit rate                                 : 29.8 kb/s
  351. Count of elements                        : 2536
  352. Stream size                              : 25.4 MiB (0%)
  353. Title                                    : Norwegian
  354. Language                                 : Norwegian
  355. Default                                  : No
  356. Forced                                   : No
  357.  
  358. Text #17
  359. ID                                       : 22
  360. Format                                   : PGS
  361. Codec ID                                 : S_HDMV/PGS
  362. Codec ID/Info                            : Picture based subtitle format used on BDs/HD-DVDs
  363. Duration                                 : 1 h 59 min
  364. Bit rate                                 : 28.1 kb/s
  365. Count of elements                        : 1923
  366. Stream size                              : 23.9 MiB (0%)
  367. Title                                    : Polish
  368. Language                                 : Polish
  369. Default                                  : No
  370. Forced                                   : No
  371.  
  372. Text #18
  373. ID                                       : 23
  374. Format                                   : PGS
  375. Codec ID                                 : S_HDMV/PGS
  376. Codec ID/Info                            : Picture based subtitle format used on BDs/HD-DVDs
  377. Duration                                 : 1 h 59 min
  378. Bit rate                                 : 28.6 kb/s
  379. Count of elements                        : 2178
  380. Stream size                              : 24.3 MiB (0%)
  381. Title                                    : Portuguese Brazilian
  382. Language                                 : Portuguese
  383. Default                                  : No
  384. Forced                                   : No
  385.  
  386. Text #19
  387. ID                                       : 24
  388. Format                                   : PGS
  389. Codec ID                                 : S_HDMV/PGS
  390. Codec ID/Info                            : Picture based subtitle format used on BDs/HD-DVDs
  391. Duration                                 : 1 h 59 min
  392. Bit rate                                 : 29.3 kb/s
  393. Count of elements                        : 1921
  394. Stream size                              : 24.9 MiB (0%)
  395. Title                                    : Portuguese Iberian
  396. Language                                 : Portuguese
  397. Default                                  : No
  398. Forced                                   : No
  399.  
  400. Text #20
  401. ID                                       : 25
  402. Format                                   : PGS
  403. Codec ID                                 : S_HDMV/PGS
  404. Codec ID/Info                            : Picture based subtitle format used on BDs/HD-DVDs
  405. Duration                                 : 1 h 59 min
  406. Bit rate                                 : 28.2 kb/s
  407. Count of elements                        : 2156
  408. Stream size                              : 24.0 MiB (0%)
  409. Title                                    : Russian
  410. Language                                 : Russian
  411. Default                                  : No
  412. Forced                                   : No
  413.  
  414. Text #21
  415. ID                                       : 26
  416. Format                                   : PGS
  417. Codec ID                                 : S_HDMV/PGS
  418. Codec ID/Info                            : Picture based subtitle format used on BDs/HD-DVDs
  419. Duration                                 : 1 h 59 min
  420. Bit rate                                 : 30.8 kb/s
  421. Count of elements                        : 2534
  422. Stream size                              : 26.3 MiB (0%)
  423. Title                                    : Spanish Castilian
  424. Language                                 : Spanish
  425. Default                                  : No
  426. Forced                                   : No
  427.  
  428. Text #22
  429. ID                                       : 27
  430. Format                                   : PGS
  431. Codec ID                                 : S_HDMV/PGS
  432. Codec ID/Info                            : Picture based subtitle format used on BDs/HD-DVDs
  433. Duration                                 : 1 h 59 min
  434. Bit rate                                 : 31.2 kb/s
  435. Count of elements                        : 2534
  436. Stream size                              : 26.6 MiB (0%)
  437. Title                                    : Spanish Latin American
  438. Language                                 : Spanish
  439. Default                                  : No
  440. Forced                                   : No
  441.  
  442. Text #23
  443. ID                                       : 28
  444. Format                                   : PGS
  445. Codec ID                                 : S_HDMV/PGS
  446. Codec ID/Info                            : Picture based subtitle format used on BDs/HD-DVDs
  447. Duration                                 : 1 h 59 min
  448. Bit rate                                 : 27.3 kb/s
  449. Count of elements                        : 2536
  450. Stream size                              : 23.3 MiB (0%)
  451. Title                                    : Swedish
  452. Language                                 : Swedish
  453. Default                                  : No
  454. Forced                                   : No
  455.  
  456. Text #24
  457. ID                                       : 29
  458. Format                                   : PGS
  459. Codec ID                                 : S_HDMV/PGS
  460. Codec ID/Info                            : Picture based subtitle format used on BDs/HD-DVDs
  461. Duration                                 : 1 h 59 min
  462. Bit rate                                 : 20.5 kb/s
  463. Count of elements                        : 2162
  464. Stream size                              : 17.5 MiB (0%)
  465. Title                                    : Thai
  466. Language                                 : Thai
  467. Default                                  : No
  468. Forced                                   : No
  469.  
  470. Text #25
  471. ID                                       : 30
  472. Format                                   : PGS
  473. Codec ID                                 : S_HDMV/PGS
  474. Codec ID/Info                            : Picture based subtitle format used on BDs/HD-DVDs
  475. Duration                                 : 1 h 59 min
  476. Bit rate                                 : 27.5 kb/s
  477. Count of elements                        : 1921
  478. Stream size                              : 23.4 MiB (0%)
  479. Title                                    : Turkish
  480. Language                                 : Turkish
  481. Default                                  : No
  482. Forced                                   : No
  483.  
  484. Text #26
  485. ID                                       : 31
  486. Format                                   : PGS
  487. Codec ID                                 : S_HDMV/PGS
  488. Codec ID/Info                            : Picture based subtitle format used on BDs/HD-DVDs
  489. Duration                                 : 1 h 59 min
  490. Bit rate                                 : 67.7 kb/s
  491. Count of elements                        : 4143
  492. Stream size                              : 57.8 MiB (0%)
  493. Title                                    : English Commentary with director Oliver Stone
  494. Language                                 : English
  495. Default                                  : No
  496. Forced                                   : No
  497.  
  498. Text #27
  499. ID                                       : 32
  500. Format                                   : PGS
  501. Codec ID                                 : S_HDMV/PGS
  502. Codec ID/Info                            : Picture based subtitle format used on BDs/HD-DVDs
  503. Duration                                 : 1 h 59 min
  504. Bit rate                                 : 51.0 kb/s
  505. Count of elements                        : 2840
  506. Stream size                              : 43.5 MiB (0%)
  507. Title                                    : French Commentary with director Oliver Stone
  508. Language                                 : French
  509. Default                                  : No
  510. Forced                                   : No
  511.  
  512. Text #28
  513. ID                                       : 33
  514. Format                                   : PGS
  515. Codec ID                                 : S_HDMV/PGS
  516. Codec ID/Info                            : Picture based subtitle format used on BDs/HD-DVDs
  517. Duration                                 : 1 h 59 min
  518. Bit rate                                 : 52.4 kb/s
  519. Count of elements                        : 2835
  520. Stream size                              : 44.7 MiB (0%)
  521. Title                                    : German Commentary with director Oliver Stone
  522. Language                                 : German
  523. Default                                  : No
  524. Forced                                   : No
  525.  
  526. Text #29
  527. ID                                       : 34
  528. Format                                   : PGS
  529. Codec ID                                 : S_HDMV/PGS
  530. Codec ID/Info                            : Picture based subtitle format used on BDs/HD-DVDs
  531. Duration                                 : 1 h 59 min
  532. Bit rate                                 : 50.6 kb/s
  533. Count of elements                        : 2835
  534. Stream size                              : 43.2 MiB (0%)
  535. Title                                    : Italian Commentary with director Oliver Stone
  536. Language                                 : Italian
  537. Default                                  : No
  538. Forced                                   : No
  539.  
  540. Menu
  541. 00:00:00.000                             : en:Logo / Main Title
  542. 00:02:57.135                             : en:Unknown Territory
  543. 00:05:26.535                             : en:Ants
  544. 00:08:14.536                             : en:First Week in Hell
  545. 00:11:28.479                             : en:Platoon Politics
  546. 00:13:13.668                             : en:New Guys on Ambush
  547. 00:18:43.122                             : en:Dead of Night
  548. 00:22:44.863                             : en:A Lesson in Dying
  549. 00:26:26.001                             : en:A Crusader
  550. 00:29:59.423                             : en:The Feel-Good Cave
  551. 00:32:18.895                             : en:Talkin' Trash
  552. 00:36:30.730                             : en:Bunker Complex
  553. 00:43:07.460                             : en:"Where's Manny?"
  554. 00:45:09.415                             : en:Doing the Village
  555. 00:50:32.905                             : en:Look the Other Way
  556. 00:55:49.555                             : en:"Fire in the Hole"
  557. 00:58:56.158                             : en:Enforced Cease-Fire
  558. 01:01:50.582                             : en:No Faith
  559. 01:03:04.864                             : en:A Rainy Blur
  560. 01:04:45.381                             : en:A Waste of Men
  561. 01:11:02.550                             : en:Elias Is Out There
  562. 01:15:26.772                             : en:"He's Dead?"
  563. 01:16:48.437                             : en:Your Tired Your Poor
  564. 01:21:07.279                             : en:Experts on Killing
  565. 01:26:42.322                             : en:Live Bait
  566. 01:29:21.022                             : en:The Rest Is Gravy
  567. 01:32:25.498                             : en:"Gotta Die Some Time"
  568. 01:37:21.794                             : en:In the Foxhole
  569. 01:43:40.131                             : en:Overrun
  570. 01:46:49.445                             : en:One Last Shot
  571. 01:50:16.652                             : en:Survivors
  572. 01:55:35.011                             : en:End Credits
RAW Paste Data
We use cookies for various purposes including analytics. By continuing to use Pastebin, you agree to our use of cookies as described in the Cookies Policy. OK, I Understand
Not a member of Pastebin yet?
Sign Up, it unlocks many cool features!
 
Top