daily pastebin goal
61%
SHARE
TWEET

H.264 mp4

a guest Jan 22nd, 2018 550 Never
Not a member of Pastebin yet? Sign Up, it unlocks many cool features!
  1. General
  2. Complete name                            : C:\BMD_DR\P1010568.MP4
  3. Format                                   : MPEG-4
  4. Format profile                           : Base Media / Version 2
  5. Codec ID                                 : mp42 (mp42/avc1)
  6. File size                                : 236 MiB
  7. Duration                                 : 21 s 522 ms
  8. Overall bit rate mode                    : Variable
  9. Overall bit rate                         : 92.1 Mb/s
  10. Encoded date                             : UTC 2016-06-11 17:24:51
  11. Tagged date                              : UTC 2016-06-11 17:24:51
  12.  
  13. Video
  14. ID                                       : 1
  15. Format                                   : AVC
  16. Format/Info                              : Advanced Video Codec
  17. Format profile                           : High@L5.1
  18. Format settings                          : CABAC / 2 Ref Frames
  19. Format settings, CABAC                   : Yes
  20. Format settings, RefFrames               : 2 frames
  21. Codec ID                                 : avc1
  22. Codec ID/Info                            : Advanced Video Coding
  23. Duration                                 : 21 s 522 ms
  24. Bit rate mode                            : Variable
  25. Bit rate                                 : 91.9 Mb/s
  26. Maximum bit rate                         : 106 Mb/s
  27. Width                                    : 3 840 pixels
  28. Height                                   : 2 160 pixels
  29. Display aspect ratio                     : 16:9
  30. Frame rate mode                          : Constant
  31. Frame rate                               : 23.976 (24000/1001) FPS
  32. Color space                              : YUV
  33. Chroma subsampling                       : 4:2:0
  34. Bit depth                                : 8 bits
  35. Scan type                                : Progressive
  36. Bits/(Pixel*Frame)                       : 0.462
  37. Stream size                              : 236 MiB (100%)
  38. Encoded date                             : UTC 2016-06-11 17:24:51
  39. Tagged date                              : UTC 2016-06-11 17:24:51
  40. Color range                              : Full
  41. Color primaries                          : BT.709
  42. Transfer characteristics                 : BT.709
  43. Matrix coefficients                      : BT.709
  44.  
  45. Audio
  46. ID                                       : 2
  47. Format                                   : AAC
  48. Format/Info                              : Advanced Audio Codec
  49. Format profile                           : LC
  50. Codec ID                                 : mp4a-40-2
  51. Duration                                 : 21 s 522 ms
  52. Source duration                          : 21 s 547 ms
  53. Bit rate mode                            : Constant
  54. Bit rate                                 : 128 kb/s
  55. Channel(s)                               : 2 channels
  56. Channel positions                        : Front: L R
  57. Sampling rate                            : 48.0 kHz
  58. Frame rate                               : 46.875 FPS (1024 SPF)
  59. Compression mode                         : Lossy
  60. Stream size                              : 329 KiB (0%)
  61. Source stream size                       : 329 KiB (0%)
  62. Encoded date                             : UTC 2016-06-11 17:24:51
  63. Tagged date                              : UTC 2016-06-11 17:24:51
RAW Paste Data
We use cookies for various purposes including analytics. By continuing to use Pastebin, you agree to our use of cookies as described in the Cookies Policy. OK, I Understand
 
Top