daily pastebin goal
91%
SHARE
TWEET

[snahp.it]under.suspicion.1991.1080p.bluray.x264-psychd_snahp.it.mkv

iMN0 Jul 16th, 2018 24 Never
Not a member of Pastebin yet? Sign Up, it unlocks many cool features!
  1. General
  2. Complete name                            : [snahp.it]under.suspicion.1991.1080p.bluray.x264-psychd_snahp.it.mkv
  3. Format                                   : Matroska
  4. Format version                           : Version 2
  5. File size                                : 6.56 GiB
  6. Duration                                 : 1 h 39 min
  7. Overall bit rate                         : 9 388 kb/s
  8. Writing application                      : x264.exe
  9. Writing library                          : mkv2rls v1.4 (date: 2011 mar 29)
  10.  
  11. Video
  12. ID                                       : 1
  13. Format                                   : AVC
  14. Format/Info                              : Advanced Video Codec
  15. Format profile                           : High@L4.1
  16. Format settings                          : CABAC / 5 Ref Frames
  17. Format settings, CABAC                   : Yes
  18. Format settings, ReFrames                : 5 frames
  19. Codec ID                                 : V_MPEG4/ISO/AVC
  20. Duration                                 : 1 h 39 min
  21. Bit rate                                 : 8 750 kb/s
  22. Width                                    : 1 920 pixels
  23. Height                                   : 800 pixels
  24. Display aspect ratio                     : 2.40:1
  25. Frame rate mode                          : Constant
  26. Frame rate                               : 23.976 (24000/1001) FPS
  27. Color space                              : YUV
  28. Chroma subsampling                       : 4:2:0
  29. Bit depth                                : 8 bits
  30. Scan type                                : Progressive
  31. Bits/(Pixel*Frame)                       : 0.238
  32. Stream size                              : 5.98 GiB (91%)
  33. Writing library                          : x264 core 118 r2085 8a62835
  34. Encoding settings                        : cabac=1 / ref=5 / deblock=1:0:0 / analyse=0x3:0x113 / me=umh / subme=8 / psy=1 / psy_rd=1.00:0.00 / mixed_ref=1 / me_range=16 / chroma_me=1 / trellis=1 / 8x8dct=1 / cqm=0 / deadzone=21,11 / fast_pskip=1 / chroma_qp_offset=-2 / threads=12 / sliced_threads=0 / nr=0 / decimate=1 / interlaced=0 / bluray_compat=0 / constrained_intra=0 / bframes=3 / b_pyramid=2 / b_adapt=2 / b_bias=0 / direct=3 / weightb=1 / open_gop=0 / weightp=2 / keyint=240 / keyint_min=24 / scenecut=40 / intra_refresh=0 / rc_lookahead=50 / rc=2pass / mbtree=1 / bitrate=8750 / ratetol=1.0 / qcomp=0.60 / qpmin=0 / qpmax=69 / qpstep=4 / cplxblur=20.0 / qblur=0.5 / ip_ratio=1.40 / aq=1:1.00
  35. Language                                 : English
  36. Default                                  : Yes
  37. Forced                                   : No
  38.  
  39. Audio
  40. ID                                       : 2
  41. Format                                   : AC-3
  42. Format/Info                              : Audio Coding 3
  43. Codec ID                                 : A_AC3
  44. Duration                                 : 1 h 39 min
  45. Bit rate mode                            : Constant
  46. Bit rate                                 : 640 kb/s
  47. Channel(s)                               : 6 channels
  48. Channel(s)_Original                      : 2 channels
  49. Channel positions                        : Front: L R
  50. Sampling rate                            : 48.0 kHz
  51. Frame rate                               : 31.250 FPS (1536 SPF)
  52. Bit depth                                : 16 bits
  53. Compression mode                         : Lossy
  54. Stream size                              : 458 MiB (7%)
  55. Language                                 : English
  56. Service kind                             : Complete Main
  57. Default                                  : Yes
  58. Forced                                   : No
  59.  
  60. Text
  61. ID                                       : 3
  62. Format                                   : UTF-8
  63. Codec ID                                 : S_TEXT/UTF8
  64. Codec ID/Info                            : UTF-8 Plain Text
  65. Language                                 : English
  66. Default                                  : No
  67. Forced                                   : No
  68.  
  69. Menu
  70. 00:00:00.000                             : en:00:00:00.000
  71. 00:07:57.352                             : en:00:07:57.352
  72. 00:14:41.005                             : en:00:14:41.005
  73. 00:18:35.614                             : en:00:18:35.614
  74. 00:24:16.705                             : en:00:24:16.705
  75. 00:29:46.535                             : en:00:29:46.535
  76. 00:36:22.597                             : en:00:36:22.597
  77. 00:41:43.376                             : en:00:41:43.376
  78. 00:49:00.646                             : en:00:49:00.646
  79. 00:54:00.237                             : en:00:54:00.237
  80. 01:00:42.472                             : en:01:00:42.472
  81. 01:05:15.120                             : en:01:05:15.120
  82. 01:09:03.222                             : en:01:09:03.222
  83. 01:16:02.725                             : en:01:16:02.725
  84. 01:21:32.346                             : en:01:21:32.346
  85. 01:26:39.152                             : en:01:26:39.152
RAW Paste Data
We use cookies for various purposes including analytics. By continuing to use Pastebin, you agree to our use of cookies as described in the Cookies Policy. OK, I Understand
 
Top