SHARE
TWEET

OKNOTOK White Cassette .cue

a guest Jul 13th, 2017 229 Never
Not a member of Pastebin yet? Sign Up, it unlocks many cool features!
  1. PERFORMER "Radiohead"
  2. TITLE "OKNOTOK White Cassette"
  3. FILE "Cassette Side A.wav" WAVE
  4.   TRACK 01 AUDIO
  5.     TITLE "Zx Spectrum Symphony"
  6.     PERFORMER "Radiohead"
  7.     INDEX 01 00:00:00
  8.   TRACK 02 AUDIO
  9.     TITLE "A.M.S. Hello"
  10.     PERFORMER "Radiohead"
  11.     INDEX 01 01:17:52
  12.   TRACK 03 AUDIO
  13.     TITLE "True Love Tape Loop"
  14.     PERFORMER "Radiohead"
  15.     INDEX 01 01:36:52
  16.   TRACK 04 AUDIO
  17.     TITLE "Let Down (Thom 4track)"
  18.     PERFORMER "Radiohead"
  19.     INDEX 01 06:37:01
  20.   TRACK 05 AUDIO
  21.     TITLE "I may be paranoid but not an android.."
  22.     PERFORMER "Radiohead"
  23.     INDEX 01 09:34:31
  24.   TRACK 06 AUDIO
  25.     TITLE "Attention (Thom 4track)"
  26.     PERFORMER "Radiohead"
  27.     INDEX 01 09:50:54
  28.   TRACK 07 AUDIO
  29.     TITLE "Noise sketch by Nigel"
  30.     PERFORMER "Radiohead"
  31.     INDEX 01 12:32:49
  32.   TRACK 08 AUDIO
  33.     TITLE "Climbing up the Walls (Abbey Road Strings)"
  34.     PERFORMER "Radiohead"
  35.     INDEX 01 13:47:46
  36.   TRACK 09 AUDIO
  37.     TITLE "Someone help this guy.."
  38.     PERFORMER "Radiohead"
  39.     INDEX 01 15:03:29
  40.   TRACK 10 AUDIO
  41.     TITLE "Motion Picture Soundtrack (solo piano)"
  42.     PERFORMER "Radiohead"
  43.     INDEX 01 15:33:40
  44.   TRACK 11 AUDIO
  45.     TITLE "Was that recording?"
  46.     PERFORMER "Radiohead"
  47.     INDEX 01 20:46:04
  48.   TRACK 12 AUDIO
  49.     TITLE "The jumbled words of Climbing up the Walls read by little Dan Clements"
  50.     PERFORMER "Radiohead"
  51.     INDEX 01 21:01:34
  52.   TRACK 13 AUDIO
  53.     TITLE "Lull (Ed guitar Infinite Reverb)"
  54.     PERFORMER "Radiohead"
  55.     INDEX 01 22:21:70
  56.   TRACK 14 AUDIO
  57.     TITLE "Airbag drums through Moog"
  58.     PERFORMER "Radiohead"
  59.     INDEX 01 23:53:12
  60.   TRACK 15 AUDIO
  61.     TITLE "Karma Police in Space Echo"
  62.     PERFORMER "Radiohead"
  63.     INDEX 01 24:59:29
  64.   TRACK 16 AUDIO
  65.     TITLE "Karma Police voice through telephone"
  66.     PERFORMER "Radiohead"
  67.     INDEX 01 26:55:29
  68.   TRACK 17 AUDIO
  69.     TITLE "(Talking)"
  70.     PERFORMER "Radiohead"
  71.     INDEX 01 27:22:42
  72.   TRACK 18 AUDIO
  73.     TITLE "Piano sketch by Jonny"
  74.     PERFORMER "Radiohead"
  75.     INDEX 01 27:30:28
  76.   TRACK 19 AUDIO
  77.     TITLE "Big Bird Story by Stanley Donwood"
  78.     PERFORMER "Radiohead"
  79.     INDEX 01 28:10:25
  80.   TRACK 20 AUDIO
  81.     TITLE "No Surprises (first idea from a soundcheck somewhere)"
  82.     PERFORMER "Radiohead"
  83.     INDEX 01 30:14:06
  84.   TRACK 21 AUDIO
  85.     TITLE "Radio chaser noise"
  86.     PERFORMER "Radiohead"
  87.     INDEX 01 33:12:22
  88.   TRACK 22 AUDIO
  89.     TITLE "Fridge buzz"
  90.     PERFORMER "Radiohead"
  91.     INDEX 01 33:36:26
  92.   TRACK 23 AUDIO
  93.     TITLE "True love Space Loop"
  94.     PERFORMER "Radiohead"
  95.     INDEX 01 33:50:32
  96.   TRACK 24 AUDIO
  97.     TITLE "(Talking)"
  98.     PERFORMER "Radiohead"
  99.     INDEX 01 34:46:66
  100.   TRACK 25 AUDIO
  101.     TITLE "Are you someone?"
  102.     PERFORMER "Radiohead"
  103.     INDEX 01 35:14:58
  104. FILE "Cassette Side B.wav" WAVE
  105.   TRACK 26 AUDIO
  106.     TITLE "Nigel A.M.S. delay"
  107.     PERFORMER "Radiohead"
  108.     INDEX 01 00:00:00
  109.   TRACK 27 AUDIO
  110.     TITLE "Jonny's Radio from Climbing up the walls"
  111.     PERFORMER "Radiohead"
  112.     INDEX 01 00:56:09
  113.   TRACK 28 AUDIO
  114.     TITLE "Climbing up the walls (Thom 4track)"
  115.     PERFORMER "Radiohead"
  116.     INDEX 01 02:09:08
  117.   TRACK 29 AUDIO
  118.     TITLE "A piano lies down in the middle of the road"
  119.     PERFORMER "Radiohead"
  120.     INDEX 01 06:07:36
  121.   TRACK 30 AUDIO
  122.     TITLE "Transposing Noise Sketch by Nigel"
  123.     PERFORMER "Radiohead"
  124.     INDEX 01 08:43:03
  125.   TRACK 31 AUDIO
  126.     TITLE "Early Paranoid Android version Jonny & Thom"
  127.     PERFORMER "Radiohead"
  128.     INDEX 01 10:50:13
  129.   TRACK 32 AUDIO
  130.     TITLE "Alternative Paranoid Android Ending live in Pittsburg"
  131.     PERFORMER "Radiohead"
  132.     INDEX 01 12:11:70
  133.   TRACK 33 AUDIO
  134.     TITLE "Airbag early acoustic version"
  135.     PERFORMER "Radiohead"
  136.     INDEX 01 14:39:53
  137.   TRACK 34 AUDIO
  138.     TITLE "(Talking)"
  139.     PERFORMER "Radiohead"
  140.     INDEX 01 18:53:68
  141.   TRACK 35 AUDIO
  142.     TITLE "Paranoid Android Loud Room at St Catherine's"
  143.     PERFORMER "Radiohead"
  144.     INDEX 01 19:11:52
  145.   TRACK 36 AUDIO
  146.     TITLE "Nigel A.M.S. paranoid guitar sample"
  147.     PERFORMER "Radiohead"
  148.     INDEX 01 20:07:39
  149.   TRACK 37 AUDIO
  150.     TITLE "Nude early band version"
  151.     PERFORMER "Radiohead"
  152.     INDEX 01 21:51:44
  153.   TRACK 38 AUDIO
  154.     TITLE "The National Anthem (Thom 4track)"
  155.     PERFORMER "Radiohead"
  156.     INDEX 01 27:29:66
  157.   TRACK 39 AUDIO
  158.     TITLE "Ambient Loops"
  159.     PERFORMER "Radiohead"
  160.     INDEX 01 30:36:40
  161.   TRACK 40 AUDIO
  162.     TITLE "Man of War live in Montpellier"
  163.     PERFORMER "Radiohead"
  164.     INDEX 01 31:26:45
  165.   TRACK 41 AUDIO
  166.     TITLE "Nigel A.M.S. delay again"
  167.     PERFORMER "Radiohead"
  168.     INDEX 01 35:54:31
  169.   TRACK 42 AUDIO
  170.     TITLE "Thom's acoustic as microphone in Climbing up the Walls"
  171.     PERFORMER "Radiohead"
  172.     INDEX 01 36:31:34
  173.   TRACK 43 AUDIO
  174.     TITLE "OK Computer Program"
  175.     PERFORMER "Radiohead"
  176.     INDEX 01 38:53:31
RAW Paste Data
We use cookies for various purposes including analytics. By continuing to use Pastebin, you agree to our use of cookies as described in the Cookies Policy. OK, I Understand
 
Top