Guest User

Untitled

a guest
Jan 13th, 2022
28
Never
Not a member of Pastebin yet? Sign Up, it unlocks many cool features!
  1. Общее
  2. Уникальный идентификатор : 200212197847371742078493297387188472922 (0x969F777A1528ED2C8297E58B9B374C5A)
  3. Полное имя : E:Torrent21MostBDRip720p.mkv
  4. Формат : Matroska
  5. Версия формата : Version 4
  6. Размер файла : 5,28 Гбайт
  7. Продолжительность : 1 ч. 39 м.
  8. Общий поток : 7 559 Кбит/сек
  9. Дата кодирования : UTC 2022-01-12 23:27:09
  10. Программа кодирования : mkvmerge v9.5.0 ('Quiet Fire') 64bit
  11. Библиотека кодирования : libebml v1.3.4 + libmatroska v1.4.5
  12.  
  13. Видео
  14. Идентификатор : 1
  15. Формат : AVC
  16. Формат/Информация : Advanced Video Codec
  17. Профиль формата : High@L4.1
  18. Настройки формата : CABAC / 12 Ref Frames
  19. Параметр CABAC формата : Да
  20. Параметр RefFrames формата : 12 кадров
  21. Идентификатор кодека : V_MPEG4/ISO/AVC
  22. Продолжительность : 1 ч. 39 м.
  23. Битрейт : 6 020 Кбит/сек
  24. Ширина : 1 280 пикселей
  25. Высота : 536 пикселей
  26. Соотношение сторон : 2,40:1
  27. Режим частоты кадров : Постоянный
  28. Частота кадров : 23,976 (23976/1000) кадра/сек
  29. Цветовое пространство : YUV
  30. Субдискретизация насыщенности : 4:2:0
  31. Битовая глубина : 8 бит
  32. Тип развёртки : Прогрессивная
  33. Бит/(Пиксели*Кадры) : 0.366
  34. Размер потока : 4,20 Гбайт (80%)
  35. Заголовок : Sisendrovich(R)
  36. Библиотека кодирования : x264 core 164 r3079 d9a19f0
  37. Настройки программы : cabac=1 / ref=12 / deblock=1:-1:-1 / analyse=0x3:0x133 / me=tesa / subme=11 / psy=1 / psy_rd=1.00:0.00 / mixed_ref=1 / me_range=32 / chroma_me=1 / trellis=2 / 8x8dct=1 / cqm=0 / deadzone=21,11 / fast_pskip=0 / chroma_qp_offset=-2 / threads=8 / lookahead_threads=2 / sliced_threads=0 / nr=0 / decimate=0 / interlaced=0 / bluray_compat=0 / constrained_intra=0 / bframes=14 / b_pyramid=2 / b_adapt=2 / b_bias=0 / direct=3 / weightb=1 / open_gop=0 / weightp=2 / keyint=240 / keyint_min=23 / scenecut=40 / intra_refresh=0 / rc_lookahead=60 / rc=2pass / mbtree=0 / bitrate=6020 / ratetol=1.0 / qcomp=0.70 / qpmin=0 / qpmax=69 / qpstep=4 / cplxblur=20.0 / qblur=0.5 / vbv_maxrate=50000 / vbv_bufsize=62500 / nal_hrd=none / filler=0 / ip_ratio=1.40 / pb_ratio=1.30 / aq=3:0.80
  38. Язык : English
  39. Default : Да
  40. Forced : Нет
  41. Цветовой диапазон : Limited
  42. Основные цвета : BT.709
  43. Характеристики трансфера : BT.709
  44. Коэффициенты матрицы : BT.709
  45.  
  46. Аудио #1
  47. Идентификатор : 2
  48. Формат : AC-3
  49. Формат/Информация : Audio Coding 3
  50. Коммерческое название : Dolby Digital
  51. Идентификатор кодека : A_AC3
  52. Продолжительность : 1 ч. 39 м.
  53. Вид битрейта : Постоянный
  54. Битрейт : 640 Кбит/сек
  55. Каналы : 6 каналов
  56. Channel layout : L R C LFE Ls Rs
  57. Частота : 48,0 КГц
  58. Частота кадров : 31,250 кадров/сек (1536 SPF)
  59. Метод сжатия : С потерями
  60. Размер потока : 458 Мбайт (8%)
  61. Заголовок : rus
  62. Язык : Russian
  63. Default : Да
  64. Forced : Нет
  65.  
  66. Аудио #2
  67. Идентификатор : 3
  68. Формат : AC-3
  69. Формат/Информация : Audio Coding 3
  70. Коммерческое название : Dolby Digital
  71. Идентификатор кодека : A_AC3
  72. Продолжительность : 1 ч. 39 м.
  73. Вид битрейта : Постоянный
  74. Битрейт : 448 Кбит/сек
  75. Каналы : 6 каналов
  76. Channel layout : L R C LFE Ls Rs
  77. Частота : 48,0 КГц
  78. Частота кадров : 31,250 кадров/сек (1536 SPF)
  79. Метод сжатия : С потерями
  80. Размер потока : 320 Мбайт (6%)
  81. Заголовок : ukr
  82. Язык : Ukrainian
  83. Default : Нет
  84. Forced : Нет
  85.  
  86. Аудио #3
  87. Идентификатор : 4
  88. Формат : AC-3
  89. Формат/Информация : Audio Coding 3
  90. Коммерческое название : Dolby Digital
  91. Идентификатор кодека : A_AC3
  92. Продолжительность : 1 ч. 39 м.
  93. Вид битрейта : Постоянный
  94. Битрейт : 448 Кбит/сек
  95. Каналы : 6 каналов
  96. Channel layout : L R C LFE Ls Rs
  97. Частота : 48,0 КГц
  98. Частота кадров : 31,250 кадров/сек (1536 SPF)
  99. Метод сжатия : С потерями
  100. Размер потока : 320 Мбайт (6%)
  101. Заголовок : eng
  102. Язык : English
  103. Default : Нет
  104. Forced : Нет
  105.  
  106. Текст #1
  107. Идентификатор : 5
  108. Формат : UTF-8
  109. Идентификатор кодека : S_TEXT/UTF8
  110. Идентификатор кодека/Информация : UTF-8 Plain Text
  111. Продолжительность : 1 ч. 30 м.
  112. Битрейт : 85 бит/сек
  113. Count of elements : 982
  114. Размер потока : 56,4 Кбайт (0%)
  115. Заголовок : rusFull
  116. Язык : Russian
  117. Default : Нет
  118. Forced : Нет
  119.  
  120. Текст #2
  121. Идентификатор : 6
  122. Формат : UTF-8
  123. Идентификатор кодека : S_TEXT/UTF8
  124. Идентификатор кодека/Информация : UTF-8 Plain Text
  125. Продолжительность : 1 ч. 29 м.
  126. Битрейт : 52 бит/сек
  127. Count of elements : 1116
  128. Размер потока : 34,5 Кбайт (0%)
  129. Заголовок : engFull
  130. Язык : English
  131. Default : Нет
  132. Forced : Нет
  133.  
  134. Текст #3
  135. Идентификатор : 7
  136. Формат : UTF-8
  137. Идентификатор кодека : S_TEXT/UTF8
  138. Идентификатор кодека/Информация : UTF-8 Plain Text
  139. Продолжительность : 1 ч. 30 м.
  140. Битрейт : 56 бит/сек
  141. Count of elements : 1249
  142. Размер потока : 37,6 Кбайт (0%)
  143. Заголовок : engSDH
  144. Язык : English
  145. Default : Нет
  146. Forced : Нет
  147.  
  148. Меню
  149. 00:00:00.000 : :Chapter 01
  150. 00:03:16.196 : :Chapter 02
  151. 00:07:48.510 : :Chapter 03
  152. 00:11:59.344 : :Chapter 04
  153. 00:16:54.722 : :Chapter 05
  154. 00:22:33.143 : :Chapter 06
  155. 00:30:54.561 : :Chapter 07
  156. 00:34:50.046 : :Chapter 08
  157. 00:40:16.414 : :Chapter 09
  158. 00:44:39.719 : :Chapter 10
  159. 00:50:54.718 : :Chapter 11
  160. 00:54:04.408 : :Chapter 12
  161. 00:58:52.320 : :Chapter 13
  162. 01:02:08.600 : :Chapter 14
  163. 01:06:19.601 : :Chapter 15
  164. 01:10:27.557 : :Chapter 16
  165. 01:16:19.617 : :Chapter 17
  166. 01:19:19.755 : :Chapter 18
  167. 01:25:15.110 : :Chapter 19
  168. 01:32:34.382 : :Chapter 20
RAW Paste Data Copied