Secasa

Untitled

Aug 8th, 2015
33
Never
Not a member of Pastebin yet? Sign Up, it unlocks many cool features!
  1. Format : Matroska
  2. Format version : Version 4 / Version 2
  3. File size : 10.2 GiB
  4. Duration : 3h 21mn
  5. Overall bit rate : 7 239 Kbps
  6. Encoded date : UTC 2015-08-08 12:51:11
  7. Writing application : mkvmerge v8.2.0 ('World of Adventure') 64bit
  8. Writing library : libebml v1.3.1 + libmatroska v1.4.2
  9. DURATION : 03:17:55.321000000
  10. NUMBER_OF_FRAMES : 4806
  11. NUMBER_OF_BYTES : 18157111
  12. _STATISTICS_WRITING_APP : mkvmerge v8.2.0 ('World of Adventure') 64bit
  13. _STATISTICS_WRITING_DATE_UTC : 2015-08-08 12:51:11
  14. _STATISTICS_TAGS : BPS DURATION NUMBER_OF_FRAMES NUMBER_OF_BYTES
  15.  
  16. Video
  17. ID : 1
  18. Format : AVC
  19. Format/Info : Advanced Video Codec
  20. Format profile : High@L4
  21. Format settings, CABAC : Yes
  22. Format settings, ReFrames : 3 frames
  23. Codec ID : V_MPEG4/ISO/AVC
  24. Duration : 3h 21mn
  25. Bit rate : 5 500 Kbps
  26. Width : 1 792 pixels
  27. Height : 1 080 pixels
  28. Display aspect ratio : 5:3
  29. Frame rate mode : Constant
  30. Frame rate : 23.976 fps
  31. Color space : YUV
  32. Chroma subsampling : 4:2:0
  33. Bit depth : 8 bits
  34. Scan type : Progressive
  35. Bits/(Pixel*Frame) : 0.119
  36. Stream size : 7.58 GiB (75%)
  37. Writing library : x264 core 130 r2273 b3065e6
  38. Encoding settings : cabac=1 / ref=4 / deblock=1:-2:-2 / analyse=0x3:0x113 / me=hex / subme=9 / psy=1 / psy_rd=1,00:0,15 / mixed_ref=1 / me_range=16 / chroma_me=1 / trellis=2 / 8x8dct=1 / cqm=0 / deadzone=21,11 / fast_pskip=1 / chroma_qp_offset=-3 / threads=12 / lookahead_threads=1 / sliced_threads=0 / nr=0 / decimate=1 / interlaced=0 / bluray_compat=0 / constrained_intra=0 / bframes=4 / b_pyramid=1 / b_adapt=2 / b_bias=0 / direct=1 / weightb=1 / open_gop=0 / weightp=1 / keyint=240 / keyint_min=24 / scenecut=40 / intra_refresh=0 / rc_lookahead=40 / rc=2pass / mbtree=1 / bitrate=5500 / ratetol=1,0 / qcomp=0,60 / qpmin=0 / qpmax=69 / qpstep=4 / cplxblur=20,0 / qblur=0,5 / ip_ratio=1,40 / aq=1:1,00
  39. Language : English
  40. Default : Yes
  41. Forced : No
  42. Color range : Limited
  43. Color primaries : BT.709
  44. Transfer characteristics : BT.709
  45. Matrix coefficients : BT.709
  46.  
  47. Audio #1
  48. ID : 2
  49. Format : AC-3
  50. Format/Info : Audio Coding 3
  51. Mode extension : CM (complete main)
  52. Format settings, Endianness : Big
  53. Codec ID : A_AC3
  54. Duration : 3h 21mn
  55. Bit rate mode : Constant
  56. Bit rate : 192 Kbps
  57. Channel(s) : 1 channel
  58. Channel positions : Front: C
  59. Sampling rate : 48.0 KHz
  60. Bit depth : 16 bits
  61. Compression mode : Lossy
  62. Stream size : 276 MiB (3%)
  63. Title : AC3 Castellano
  64. Language : Spanish
  65. Default : Yes
  66. Forced : No
  67.  
  68. Audio #2
  69. ID : 3
  70. Format : DTS
  71. Format/Info : Digital Theater Systems
  72. Mode : 16
  73. Format settings, Endianness : Big
  74. Codec ID : A_DTS
  75. Duration : 3h 21mn
  76. Bit rate mode : Constant
  77. Bit rate : 1 509 Kbps
  78. Channel(s) : 2 channels
  79. Channel positions : Front: L R
  80. Sampling rate : 48.0 KHz
  81. Bit depth : 24 bits
  82. Compression mode : Lossy
  83. Stream size : 2.12 GiB (21%)
  84. Title : DTS Ingles
  85. Default : No
  86. Forced : No
  87.  
  88. Text #1
  89. ID : 4
  90. Format : PGS
  91. Muxing mode : zlib
  92. Codec ID : S_HDMV/PGS
  93. Codec ID/Info : Picture based subtitle format used on BDs/HD-DVDs
  94. Title : Ingles
  95. Language : English
  96. Default : No
  97. Forced : No
  98.  
  99. Text #2
  100. ID : 5
  101. Format : PGS
  102. Muxing mode : zlib
  103. Codec ID : S_HDMV/PGS
  104. Codec ID/Info : Picture based subtitle format used on BDs/HD-DVDs
  105. Title : Castellano
  106. Language : Spanish
  107. Default : No
  108. Forced : No
  109.  
  110. Text #3
  111. ID : 6
  112. Format : PGS
  113. Muxing mode : zlib
  114. Codec ID : S_HDMV/PGS
  115. Codec ID/Info : Picture based subtitle format used on BDs/HD-DVDs
  116. Title : Castellano
  117. Language : Spanish
  118. Default : No
  119. Forced : No
  120.  
  121. Menu
  122. 00:00:00.000 : en:00:00:00.000
  123. 00:02:09.546 : en:00:02:09.546
  124. 00:04:49.580 : en:00:04:49.581
  125. 00:07:56.934 : en:00:07:56.935
  126. 00:10:14.363 : en:00:10:14.322
  127. 00:11:31.273 : en:00:11:31.274
  128. 00:16:34.118 : en:00:16:34.076
  129. 00:20:03.660 : en:00:20:03.619
  130. 00:22:07.993 : en:00:22:07.952
  131. 00:24:58.538 : en:00:24:58.497
  132. 00:27:41.451 : en:00:27:41.451
  133. 00:34:47.960 : en:00:34:47.961
  134. 00:36:20.469 : en:00:36:20.387
  135. 00:39:26.030 : en:00:39:25.989
  136. 00:41:33.407 : en:00:41:33.408
  137. 00:43:19.346 : en:00:43:19.305
  138. 00:45:38.902 : en:00:45:38.861
  139. 00:55:23.570 : en:00:55:23.529
  140. 01:03:46.197 : en:01:03:46.156
  141. 01:06:06.420 : en:01:06:06.421
  142. 01:10:57.253 : en:01:10:57.170
  143. 01:14:59.203 : en:01:14:59.203
  144. 01:18:26.993 : en:01:18:26.952
  145. 01:19:51.745 : en:01:19:51.704
  146. 01:27:09.891 : en:01:27:09.891
  147. 01:31:04.876 : en:01:31:04.876
  148. 01:35:28.013 : en:01:35:27.972
  149. 01:38:59.099 : en:01:38:59.100
  150. 01:43:00.716 : en:01:43:00.716
  151. 01:45:46.214 : en:01:45:46.173
  152. 01:48:29.503 : en:01:48:29.503
  153. 01:49:58.967 : en:01:49:58.967
  154. 01:59:37.587 : en:01:59:37.587
  155. 02:02:20.583 : en:02:02:20.542
  156. 02:08:00.214 : en:02:08:00.214
  157. 02:10:06.381 : en:02:10:06.382
  158. 02:14:51.208 : en:02:14:51.125
  159. 02:17:37.624 : en:02:17:37.624
  160. 02:19:27.650 : en:02:19:27.568
  161. 02:22:38.383 : en:02:22:38.300
  162. 02:27:38.266 : en:02:27:38.266
  163. 02:30:01.575 : en:02:30:01.576
  164. 02:32:40.860 : en:02:32:40.860
  165. 02:38:52.105 : en:02:38:52.106
  166. 02:40:52.184 : en:02:40:52.101
  167. 02:44:54.050 : en:02:44:54.051
  168. 02:50:41.022 : en:02:50:41.022
  169. 02:52:31.466 : en:02:52:31.383
  170. 02:54:39.969 : en:02:54:39.969
  171. 02:59:56.076 : en:02:59:56.077
  172. 03:04:30.476 : en:03:04:30.393
  173. 03:07:43.377 : en:03:07:43.294
  174. 03:11:55.629 : en:03:11:55.546
  175. 03:15:22.210 : en:03:15:22.210
  176. 03:18:01.077 : en:03:18:01.036
  177. 03:18:24.559 : en:03:18:24.518
RAW Paste Data