Guest User

Untitled

a guest
May 8th, 2019
78
Never
Not a member of Pastebin yet? Sign Up, it unlocks many cool features!
  1. General
  2. Complete name : Pitch.Black.2000.Directors.Cut.1080p.BluRay.REMUX.VC-1.DTS-HD.MA.5.1-EPSiLON.mkv
  3. Format : Matroska
  4. Format version : Version 4
  5. File size : 22.9 GiB
  6. Duration : 1 h 51 min
  7. Overall bit rate mode : Variable
  8. Overall bit rate : 29.4 Mb/s
  9. Encoded date : UTC 2017-04-25 15:11:29
  10. Writing application : mkvmerge v10.0.0 ('To Drown In You') 64bit
  11. Writing library : libebml v1.3.4 + libmatroska v1.4.5
  12.  
  13. Video
  14. ID : 1
  15. Format : VC-1
  16. Format profile : Advanced@L3
  17. Codec ID : V_MS/VFW/FOURCC / WVC1
  18. Codec ID/Hint : Microsoft
  19. Duration : 1 h 51 min
  20. Bit rate : 24.7 Mb/s
  21. Width : 1 920 pixels
  22. Height : 1 080 pixels
  23. Display aspect ratio : 16:9
  24. Frame rate mode : Constant
  25. Frame rate : 23.976 (24000/1001) FPS
  26. Color space : YUV
  27. Chroma subsampling : 4:2:0
  28. Bit depth : 8 bits
  29. Scan type : Progressive
  30. Compression mode : Lossy
  31. Bits/(Pixel*Frame) : 0.496
  32. Stream size : 19.3 GiB (84%)
  33. Title : VC-1 Video / 24683 kbps / 1080p / 23,976 fps / 16:9 / Advanced Profile 3
  34. Language : English
  35. Default : Yes
  36. Forced : No
  37.  
  38. Audio #1
  39. ID : 2
  40. Format : DTS XLL
  41. Format/Info : Digital Theater Systems
  42. Commercial name : DTS-HD Master Audio
  43. Codec ID : A_DTS
  44. Duration : 1 h 51 min
  45. Bit rate mode : Variable
  46. Bit rate : 4 216 kb/s
  47. Channel(s) : 6 channels
  48. Channel layout : C L R Ls Rs LFE
  49. Sampling rate : 48.0 kHz
  50. Frame rate : 93.750 FPS (512 SPF)
  51. Bit depth : 24 bits
  52. Compression mode : Lossless
  53. Stream size : 3.30 GiB (14%)
  54. Title : DTS-HD Master Audio / 5.1 / 48 kHz / 4216 kbps / 24-bit
  55. Language : English
  56. Default : Yes
  57. Forced : No
  58.  
  59. Audio #2
  60. ID : 3
  61. Format : AC-3
  62. Format/Info : Audio Coding 3
  63. Commercial name : Dolby Digital
  64. Codec ID : A_AC3
  65. Duration : 1 h 51 min
  66. Bit rate mode : Constant
  67. Bit rate : 192 kb/s
  68. Channel(s) : 2 channels
  69. Channel layout : L R
  70. Sampling rate : 48.0 kHz
  71. Frame rate : 31.250 FPS (1536 SPF)
  72. Bit depth : 16 bits
  73. Compression mode : Lossy
  74. Stream size : 154 MiB (1%)
  75. Title : Commentary by Writer/Director David Twohy, Actors Vin Diesel and Cole Hauser (Dolby Digital Audio / 2.0 / 48 kHz / 192 kbps)
  76. Language : English
  77. Service kind : Complete Main
  78. Default : No
  79. Forced : No
  80.  
  81. Audio #3
  82. ID : 4
  83. Format : AC-3
  84. Format/Info : Audio Coding 3
  85. Commercial name : Dolby Digital
  86. Codec ID : A_AC3
  87. Duration : 1 h 51 min
  88. Bit rate mode : Constant
  89. Bit rate : 192 kb/s
  90. Channel(s) : 2 channels
  91. Channel layout : L R
  92. Sampling rate : 48.0 kHz
  93. Frame rate : 31.250 FPS (1536 SPF)
  94. Bit depth : 16 bits
  95. Compression mode : Lossy
  96. Stream size : 154 MiB (1%)
  97. Title : Commentary by Writer/Director David Twohy, Producer Tom Engelman and Visual Effects Supervisor Peter Chiang (Dolby Digital Audio / 2.0 / 48 kHz / 192 kbps)
  98. Language : English
  99. Service kind : Complete Main
  100. Default : No
  101. Forced : No
  102.  
  103. Text #1
  104. ID : 5
  105. Format : PGS
  106. Codec ID : S_HDMV/PGS
  107. Codec ID/Info : Picture based subtitle format used on BDs/HD-DVDs
  108. Duration : 1 h 44 min
  109. Bit rate : 29.0 kb/s
  110. Count of elements : 2375
  111. Stream size : 21.7 MiB (0%)
  112. Title : SDH
  113. Language : English
  114. Default : No
  115. Forced : No
  116.  
  117. Text #2
  118. ID : 6
  119. Format : PGS
  120. Codec ID : S_HDMV/PGS
  121. Codec ID/Info : Picture based subtitle format used on BDs/HD-DVDs
  122. Duration : 1 h 44 min
  123. Bit rate : 24.1 kb/s
  124. Count of elements : 1776
  125. Stream size : 18.0 MiB (0%)
  126. Language : French
  127. Default : No
  128. Forced : No
  129.  
  130. Text #3
  131. ID : 7
  132. Format : PGS
  133. Codec ID : S_HDMV/PGS
  134. Codec ID/Info : Picture based subtitle format used on BDs/HD-DVDs
  135. Duration : 1 h 44 min
  136. Bit rate : 19.9 kb/s
  137. Count of elements : 1729
  138. Stream size : 14.8 MiB (0%)
  139. Language : Spanish
  140. Default : No
  141. Forced : No
  142.  
  143. Menu
  144. 00:00:00.000 : en:The Animal Side
  145. 00:02:56.885 : en:Crash Landing
  146. 00:08:28.007 : en:The Survivors
  147. 00:17:05.858 : en:The Dead Planet
  148. 00:27:13.631 : en:The Other Inhabitants
  149. 00:32:27.987 : en:Into the Hole
  150. 00:36:49.915 : en:Riddick's Deal
  151. 00:46:49.389 : en:The Coming Eclipse
  152. 00:56:08.907 : en:Darkness Falls
  153. 01:02:45.678 : en:Just Don't Run
  154. 01:08:07.750 : en:The Escape Plan
  155. 01:14:22.291 : en:Paris's Demise
  156. 01:20:00.503 : en:Duel in the Dark
  157. 01:25:38.800 : en:Running the Gauntlet
  158. 01:30:14.909 : en:Survival Instinct
  159. 01:38:59.975 : en:Sacrifices
  160. 01:43:37.878 : en:Say Good Night
  161. 01:46:13.867 : en:End Titles
RAW Paste Data