SHARE
TWEET

Puella Magi Madoka Magica Ultimate Best

a guest Jul 26th, 2018 201 Never
Not a member of Pastebin yet? Sign Up, it unlocks many cool features!
  1. REM DISCID ED0F1212
  2. REM COMMENT "ExactAudioCopy v1.3"
  3. TITLE "「Puella Magi Madoka Magica」 Ultimate Best"
  4. FILE "SVWC-70281.wav" WAVE
  5.   TRACK 01 AUDIO
  6.     TITLE "Connect"
  7.     PERFORMER "ClariS"
  8.     ISRC JPU901001861
  9.     INDEX 01 00:00:00
  10.   TRACK 02 AUDIO
  11.     TITLE "Mata Ashita"
  12.     PERFORMER "KANAME MADOKA(CV:YUKI AOI)"
  13.     ISRC JPE301100462
  14.     INDEX 00 04:28:62
  15.     INDEX 01 04:30:33
  16.   TRACK 03 AUDIO
  17.     TITLE "Credens justitiam"
  18.     PERFORMER "MIKI SAYAKA(CV:KITAMURA ERI)"
  19.     ISRC JPE301100657
  20.     INDEX 00 08:53:71
  21.     INDEX 01 08:54:65
  22.   TRACK 04 AUDIO
  23.     TITLE "Sis puella magica! "
  24.     PERFORMER "Kalafina"
  25.     ISRC JPE301100654
  26.     INDEX 00 10:49:54
  27.     INDEX 01 10:50:69
  28.   TRACK 05 AUDIO
  29.     TITLE "and I'm home"
  30.     PERFORMER "MIKI SAYAKA(CV:KITAMURA ERI))&KYŌKO SAKURA(CV: NONAKA AI)"
  31.     ISRC JPE301102901
  32.     INDEX 00 13:38:18
  33.     INDEX 01 13:40:31
  34.   TRACK 06 AUDIO
  35.     TITLE "Magia"
  36.     PERFORMER "Kalafina"
  37.     ISRC JPU901001841
  38.     INDEX 00 16:29:33
  39.     INDEX 01 16:29:70
  40.   TRACK 07 AUDIO
  41.     TITLE "Luminus"
  42.     PERFORMER "ClariS"
  43.     ISRC JPU901201361
  44.     INDEX 00 21:39:29
  45.     INDEX 01 21:43:39
  46.   TRACK 08 AUDIO
  47.     TITLE "she is a witch"
  48.     PERFORMER "Kalafina"
  49.     ISRC JPE301301988
  50.     INDEX 00 25:52:35
  51.     INDEX 01 25:53:68
  52.   TRACK 09 AUDIO
  53.     TITLE "Hikari Furu"
  54.     PERFORMER "Kalafina"
  55.     ISRC JPU901201401
  56.     INDEX 00 27:34:55
  57.     INDEX 01 27:35:12
  58.   TRACK 10 AUDIO
  59.     TITLE "naturally"
  60.     PERFORMER "TOMOE MAMI(CV:MIZUHASHI KAORI)"
  61.     ISRC JPE301700785
  62.     INDEX 00 32:26:66
  63.     INDEX 01 32:29:38
  64.   TRACK 11 AUDIO
  65.     TITLE "Akogare Saita"
  66.     PERFORMER "TOMOE MAMI(CV:MIZUHASHI KAORI)"
  67.     ISRC JPE301700786
  68.     INDEX 00 36:55:72
  69.     INDEX 01 36:58:06
  70.   TRACK 12 AUDIO
  71.     TITLE "Mebius Ash"
  72.     PERFORMER "AKEMI HOMURA(CV:SAITO CHIWA)"
  73.     ISRC JPE301700787
  74.     INDEX 00 40:48:27
  75.     INDEX 01 40:49:74
  76.   TRACK 13 AUDIO
  77.     TITLE "Yumeoto"
  78.     PERFORMER "KANAME MADOKA(CV:YUKI AOI);AKEMI HOMURA(CV:SAITO CHIWA)"
  79.     ISRC JPE301700788
  80.     INDEX 00 44:51:60
  81.     INDEX 01 44:53:32
  82.   TRACK 14 AUDIO
  83.     TITLE "Stairs"
  84.     PERFORMER "TOMOE MAMI(CV:MIZUHASHI KAORI);KYŌKO SAKURA(CV: NONAKA AI)"
  85.     ISRC JPE301700789
  86.     INDEX 00 48:47:72
  87.     INDEX 01 48:50:06
  88.   TRACK 15 AUDIO
  89.     TITLE "Mada Dameyo"
  90.     PERFORMER "AKEMI HOMURA(CV:SAITO CHIWA)"
  91.     ISRC JPE301400086
  92.     INDEX 00 52:37:44
  93.     INDEX 01 52:41:33
  94.   TRACK 16 AUDIO
  95.     TITLE "Noi! "
  96.     PERFORMER "KANAME MADOKA(CV:YUKI AOI)"
  97.     ISRC JPE301400115
  98.     INDEX 00 53:37:21
  99.     INDEX 01 53:38:50
  100.   TRACK 17 AUDIO
  101.     TITLE "Karafuru"
  102.     PERFORMER "ClariS"
  103.     ISRC JPU901300921
  104.     INDEX 00 54:36:27
  105.     INDEX 01 54:38:69
  106.   TRACK 18 AUDIO
  107.     TITLE "Kimi no Gin no Niwa"
  108.     PERFORMER "Kalafina"
  109.     ISRC JPU901301237
  110.     INDEX 00 59:09:22
  111.     INDEX 01 59:12:21
RAW Paste Data
We use cookies for various purposes including analytics. By continuing to use Pastebin, you agree to our use of cookies as described in the Cookies Policy. OK, I Understand
Not a member of Pastebin yet?
Sign Up, it unlocks many cool features!
 
Top