SHARE
TWEET

Suicide_Squad_4K

iMN0 Jul 9th, 2017 (edited) 663 Never
Not a member of Pastebin yet? Sign Up, it unlocks many cool features!
  1. General
  2. Unique ID                                : 207264483479819790981366787915571751603 (0x9BEDB000EDCC38409D73661ED6836AB3)
  3. Format                                   : Matroska
  4. Format version                           : Version 4 / Version 2
  5. File size                                : 6.43 GiB
  6. Duration                                 : 2 h 14 min
  7. Overall bit rate                         : 6 844 kb/s
  8. Movie name                               : Suicide Squad 2016  (2160p x265 10bit Joy)[UTR]
  9. Encoded date                             : UTC 2017-07-01 04:23:23
  10. Writing application                      : mkvmerge v13.0.0 ('The Juggler') 64bit
  11. Writing library                          : libebml v1.3.4 + libmatroska v1.4.5
  12. Cover                                    : Yes
  13. Attachments                              : cover.jpg
  14.  
  15. Video
  16. ID                                       : 1
  17. Format                                   : HEVC
  18. Format/Info                              : High Efficiency Video Coding
  19. Format profile                           : Main 10@L5@Main
  20. Codec ID                                 : V_MPEGH/ISO/HEVC
  21. Duration                                 : 2 h 14 min
  22. Bit rate                                 : 6 008 kb/s
  23. Width                                    : 3 840 pixels
  24. Height                                   : 1 600 pixels
  25. Display aspect ratio                     : 2.40:1
  26. Frame rate mode                          : Constant
  27. Frame rate                               : 23.976 (24000/1001) FPS
  28. Color space                              : YUV
  29. Chroma subsampling                       : 4:2:0
  30. Bit depth                                : 10 bits
  31. Bits/(Pixel*Frame)                       : 0.041
  32. Stream size                              : 5.65 GiB (88%)
  33. Writing library                          : x265 2.4+27-e9e574bbed93:[Windows][GCC 6.3.0][64 bit] 10bit
  34. Encoding settings                        : cpuid=1173503 / frame-threads=3 / numa-pools=8 / wpp / no-pmode / no-pme / no-psnr / no-ssim / log-level=2 / input-csp=1 / input-res=3840x1600 / interlace=0 / total-frames=193784 / level-idc=0 / high-tier=1 / uhd-bd=0 / ref=3 / no-allow-non-conformance / no-repeat-headers / annexb / no-aud / no-hrd / info / hash=0 / no-temporal-layers / open-gop / min-keyint=23 / keyint=250 / bframes=4 / b-adapt=2 / b-pyramid / bframe-bias=0 / rc-lookahead=20 / lookahead-slices=8 / scenecut=40 / no-intra-refresh / ctu=64 / min-cu-size=8 / rect / no-amp / max-tu-size=32 / tu-inter-depth=1 / tu-intra-depth=1 / limit-tu=0 / rdoq-level=0 / dynamic-rd=0.00 / no-ssim-rd / signhide / no-tskip / nr-intra=100 / nr-inter=100 / no-constrained-intra / strong-intra-smoothing / max-merge=2 / limit-refs=3 / no-limit-modes / me=1 / subme=2 / merange=57 / temporal-mvp / weightp / no-weightb / no-analyze-src-pics / deblock=0:0 / sao / no-sao-non-deblock / rd=5 / early-skip / rskip / fast-intra / no-tskip-fast / no-cu-lossless / no-b-intra / rdpenalty=0 / psy-rd=0.30 / psy-rdoq=0.00 / no-rd-refine / analysis-mode=0 / no-lossless / cbqpoffs=0 / crqpoffs=0 / rc=abr / bitrate=6000 / qcomp=0.60 / qpstep=4 / stats-write=0 / stats-read=2 / cplxblur=20.0 / qblur=0.5 / ipratio=1.40 / pbratio=1.30 / aq-mode=3 / aq-strength=1.00 / cutree / zone-count=0 / no-strict-cbr / qg-size=32 / no-rc-grain / qpmax=69 / qpmin=0 / sar=0 / overscan=0 / videoformat=5 / range=1 / colorprim=2 / transfer=2 / colormatrix=2 / chromaloc=0 / display-window=0 / max-cll=0,0 / min-luma=0 / max-luma=1023 / log2-max-poc-lsb=8 / vui-timing-info / vui-hrd-info / slices=1 / opt-qp-pps / opt-ref-list-length-pps / no-multi-pass-opt-rps / scenecut-bias=0.05 / no-opt-cu-delta-qp / aq-motion / no-hdr / no-hdr-opt / no-dhdr10-opt / refine-level=5 / limit-sao / ctu-info=0
  35. Default                                  : Yes
  36. Forced                                   : No
  37. Color range                              : Full
  38.  
  39. Audio #1
  40. ID                                       : 2
  41. Format                                   : AAC
  42. Format/Info                              : Advanced Audio Codec
  43. Format profile                           : LC
  44. Codec ID                                 : A_AAC
  45. Duration                                 : 2 h 14 min
  46. Bit rate                                 : 362 kb/s
  47. Channel(s)                               : 8 channels
  48. Channel positions                        : Front: L C R, Side: 4, LFE
  49. Sampling rate                            : 48.0 kHz
  50. Frame rate                               : 46.875 FPS (1024 spf)
  51. Compression mode                         : Lossy
  52. Delay relative to video                  : 171 ms
  53. Stream size                              : 348 MiB (5%)
  54. Language                                 : English
  55. Default                                  : No
  56. Forced                                   : No
  57.  
  58. Audio #2
  59. ID                                       : 9
  60. Format                                   : AAC
  61. Format/Info                              : Advanced Audio Codec
  62. Format profile                           : HE-AAC / LC
  63. Codec ID                                 : A_AAC
  64. Duration                                 : 2 h 14 min
  65. Bit rate                                 : 85.3 kb/s
  66. Channel(s)                               : 2 channels
  67. Channel positions                        : Front: L R
  68. Sampling rate                            : 48.0 kHz / 24.0 kHz
  69. Frame rate                               : 23.438 FPS (1024 spf)
  70. Compression mode                         : Lossy
  71. Delay relative to video                  : 31 ms
  72. Stream size                              : 82.1 MiB (1%)
  73. Language                                 : French
  74. Default                                  : No
  75. Forced                                   : No
  76.  
  77. Audio #3
  78. ID                                       : 10
  79. Format                                   : AAC
  80. Format/Info                              : Advanced Audio Codec
  81. Format profile                           : HE-AAC / LC
  82. Codec ID                                 : A_AAC
  83. Duration                                 : 2 h 14 min
  84. Bit rate                                 : 85.0 kb/s
  85. Channel(s)                               : 2 channels
  86. Channel positions                        : Front: L R
  87. Sampling rate                            : 48.0 kHz / 24.0 kHz
  88. Frame rate                               : 23.438 FPS (1024 spf)
  89. Compression mode                         : Lossy
  90. Delay relative to video                  : 31 ms
  91. Stream size                              : 81.8 MiB (1%)
  92. Language                                 : Spanish
  93. Default                                  : No
  94. Forced                                   : No
  95.  
  96. Audio #4
  97. ID                                       : 11
  98. Format                                   : AAC
  99. Format/Info                              : Advanced Audio Codec
  100. Format profile                           : HE-AAC / LC
  101. Codec ID                                 : A_AAC
  102. Duration                                 : 2 h 14 min
  103. Bit rate                                 : 85.8 kb/s
  104. Channel(s)                               : 2 channels
  105. Channel positions                        : Front: L R
  106. Sampling rate                            : 48.0 kHz / 24.0 kHz
  107. Frame rate                               : 23.438 FPS (1024 spf)
  108. Compression mode                         : Lossy
  109. Delay relative to video                  : 31 ms
  110. Stream size                              : 82.5 MiB (1%)
  111. Language                                 : German
  112. Default                                  : No
  113. Forced                                   : No
  114.  
  115. Audio #5
  116. ID                                       : 12
  117. Format                                   : AAC
  118. Format/Info                              : Advanced Audio Codec
  119. Format profile                           : HE-AAC / LC
  120. Codec ID                                 : A_AAC
  121. Duration                                 : 2 h 14 min
  122. Bit rate                                 : 85.6 kb/s
  123. Channel(s)                               : 2 channels
  124. Channel positions                        : Front: L R
  125. Sampling rate                            : 48.0 kHz / 24.0 kHz
  126. Frame rate                               : 23.438 FPS (1024 spf)
  127. Compression mode                         : Lossy
  128. Delay relative to video                  : 31 ms
  129. Stream size                              : 82.4 MiB (1%)
  130. Language                                 : Italian
  131. Default                                  : No
  132. Forced                                   : No
  133.  
  134. Audio #6
  135. ID                                       : 13
  136. Format                                   : AAC
  137. Format/Info                              : Advanced Audio Codec
  138. Format profile                           : HE-AAC / LC
  139. Codec ID                                 : A_AAC
  140. Duration                                 : 2 h 14 min
  141. Bit rate                                 : 84.9 kb/s
  142. Channel(s)                               : 2 channels
  143. Channel positions                        : Front: L R
  144. Sampling rate                            : 48.0 kHz / 24.0 kHz
  145. Frame rate                               : 23.438 FPS (1024 spf)
  146. Compression mode                         : Lossy
  147. Delay relative to video                  : 31 ms
  148. Stream size                              : 81.7 MiB (1%)
  149. Language                                 : Japanese
  150. Default                                  : No
  151. Forced                                   : No
  152.  
  153. Text #1
  154. ID                                       : 3
  155. Format                                   : VobSub
  156. Muxing mode                              : zlib
  157. Codec ID                                 : S_VOBSUB
  158. Codec ID/Info                            : Picture based subtitle format used on DVDs
  159. Duration                                 : 2 h 7 min
  160. Bit rate                                 : 5 151 b/s
  161. Count of elements                        : 1589
  162. Stream size                              : 4.68 MiB (0%)
  163. Language                                 : Japanese
  164. Default                                  : No
  165. Forced                                   : No
  166.  
  167. Text #2
  168. ID                                       : 4
  169. Format                                   : VobSub
  170. Muxing mode                              : zlib
  171. Codec ID                                 : S_VOBSUB
  172. Codec ID/Info                            : Picture based subtitle format used on DVDs
  173. Duration                                 : 2 h 14 min
  174. Bit rate                                 : 7 057 b/s
  175. Count of elements                        : 1556
  176. Stream size                              : 6.77 MiB (0%)
  177. Language                                 : French
  178. Default                                  : No
  179. Forced                                   : No
  180.  
  181. Text #3
  182. ID                                       : 5
  183. Format                                   : VobSub
  184. Muxing mode                              : zlib
  185. Codec ID                                 : S_VOBSUB
  186. Codec ID/Info                            : Picture based subtitle format used on DVDs
  187. Duration                                 : 2 h 13 min
  188. Bit rate                                 : 10.3 kb/s
  189. Count of elements                        : 1887
  190. Stream size                              : 9.86 MiB (0%)
  191. Language                                 : German
  192. Default                                  : No
  193. Forced                                   : No
  194.  
  195. Text #4
  196. ID                                       : 6
  197. Format                                   : VobSub
  198. Muxing mode                              : zlib
  199. Codec ID                                 : S_VOBSUB
  200. Codec ID/Info                            : Picture based subtitle format used on DVDs
  201. Duration                                 : 2 h 14 min
  202. Bit rate                                 : 8 797 b/s
  203. Count of elements                        : 1851
  204. Stream size                              : 8.44 MiB (0%)
  205. Language                                 : Italian
  206. Default                                  : No
  207. Forced                                   : No
  208.  
  209. Text #5
  210. ID                                       : 7
  211. Format                                   : VobSub
  212. Muxing mode                              : zlib
  213. Codec ID                                 : S_VOBSUB
  214. Codec ID/Info                            : Picture based subtitle format used on DVDs
  215. Duration                                 : 2 h 14 min
  216. Bit rate                                 : 7 476 b/s
  217. Count of elements                        : 1503
  218. Stream size                              : 7.17 MiB (0%)
  219. Language                                 : Spanish
  220. Default                                  : No
  221. Forced                                   : No
  222.  
  223. Text #6
  224. ID                                       : 8
  225. Format                                   : VobSub
  226. Muxing mode                              : zlib
  227. Codec ID                                 : S_VOBSUB
  228. Codec ID/Info                            : Picture based subtitle format used on DVDs
  229. Duration                                 : 2 h 14 min
  230. Bit rate                                 : 6 619 b/s
  231. Count of elements                        : 1433
  232. Stream size                              : 6.35 MiB (0%)
  233. Language                                 : Dutch
  234. Default                                  : No
  235. Forced                                   : No
  236.  
  237. Text #7
  238. ID                                       : 14
  239. Format                                   : PGS
  240. Muxing mode                              : zlib
  241. Codec ID                                 : S_HDMV/PGS
  242. Codec ID/Info                            : Picture based subtitle format used on BDs/HD-DVDs
  243. Duration                                 : 2 h 13 min
  244. Bit rate                                 : 33.1 kb/s
  245. Count of elements                        : 3648
  246. Stream size                              : 31.8 MiB (0%)
  247. Language                                 : English
  248. Default                                  : No
  249. Forced                                   : No
  250.  
  251. Text #8
  252. ID                                       : 15
  253. Format                                   : VobSub
  254. Muxing mode                              : zlib
  255. Codec ID                                 : S_VOBSUB
  256. Codec ID/Info                            : Picture based subtitle format used on DVDs
  257. Duration                                 : 2 h 14 min
  258. Bit rate                                 : 457 b/s
  259. Count of elements                        : 89
  260. Stream size                              : 450 KiB (0%)
  261. Language                                 : French
  262. Default                                  : No
  263. Forced                                   : No
  264.  
  265. Text #9
  266. ID                                       : 16
  267. Format                                   : ASS
  268. Codec ID                                 : S_TEXT/ASS
  269. Codec ID/Info                            : Advanced Sub Station Alpha
  270. Duration                                 : 2 h 11 min
  271. Bit rate                                 : 131 b/s
  272. Count of elements                        : 1615
  273. Compression mode                         : Lossless
  274. Stream size                              : 127 KiB (0%)
  275. Language                                 : Arabic
  276. Default                                  : No
  277. Forced                                   : No
  278.  
  279. Text #10
  280. ID                                       : 17
  281. Format                                   : UTF-8
  282. Codec ID                                 : S_TEXT/UTF8
  283. Codec ID/Info                            : UTF-8 Plain Text
  284. Duration                                 : 2 h 14 min
  285. Bit rate                                 : 41 b/s
  286. Count of elements                        : 1542
  287. Stream size                              : 41.1 KiB (0%)
  288. Language                                 : Danish
  289. Default                                  : No
  290. Forced                                   : No
  291.  
  292. Text #11
  293. ID                                       : 18
  294. Format                                   : UTF-8
  295. Codec ID                                 : S_TEXT/UTF8
  296. Codec ID/Info                            : UTF-8 Plain Text
  297. Duration                                 : 2 h 7 min
  298. Bit rate                                 : 47 b/s
  299. Count of elements                        : 1177
  300. Stream size                              : 44.1 KiB (0%)
  301. Language                                 : Dutch
  302. Default                                  : No
  303. Forced                                   : No
  304.  
  305. Text #12
  306. ID                                       : 19
  307. Format                                   : UTF-8
  308. Codec ID                                 : S_TEXT/UTF8
  309. Codec ID/Info                            : UTF-8 Plain Text
  310. Duration                                 : 2 h 7 min
  311. Bit rate                                 : 75 b/s
  312. Count of elements                        : 1632
  313. Stream size                              : 70.3 KiB (0%)
  314. Language                                 : Persian
  315. Default                                  : No
  316. Forced                                   : No
  317.  
  318. Text #13
  319. ID                                       : 20
  320. Format                                   : UTF-8
  321. Codec ID                                 : S_TEXT/UTF8
  322. Codec ID/Info                            : UTF-8 Plain Text
  323. Duration                                 : 2 h 14 min
  324. Bit rate                                 : 41 b/s
  325. Count of elements                        : 1563
  326. Stream size                              : 40.8 KiB (0%)
  327. Language                                 : Finnish
  328. Default                                  : No
  329. Forced                                   : No
  330.  
  331. Text #14
  332. ID                                       : 21
  333. Format                                   : UTF-8
  334. Codec ID                                 : S_TEXT/UTF8
  335. Codec ID/Info                            : UTF-8 Plain Text
  336. Duration                                 : 2 h 7 min
  337. Bit rate                                 : 53 b/s
  338. Count of elements                        : 1581
  339. Stream size                              : 50.1 KiB (0%)
  340. Language                                 : French
  341. Default                                  : No
  342. Forced                                   : No
  343.  
  344. Text #15
  345. ID                                       : 22
  346. Format                                   : UTF-8
  347. Codec ID                                 : S_TEXT/UTF8
  348. Codec ID/Info                            : UTF-8 Plain Text
  349. Duration                                 : 2 h 14 min
  350. Bit rate                                 : 47 b/s
  351. Count of elements                        : 1547
  352. Stream size                              : 47.1 KiB (0%)
  353. Language                                 : Icelandic
  354. Default                                  : No
  355. Forced                                   : No
  356.  
  357. Text #16
  358. ID                                       : 23
  359. Format                                   : UTF-8
  360. Codec ID                                 : S_TEXT/UTF8
  361. Codec ID/Info                            : UTF-8 Plain Text
  362. Duration                                 : 2 h 8 min
  363. Bit rate                                 : 95 b/s
  364. Count of elements                        : 1628
  365. Stream size                              : 89.7 KiB (0%)
  366. Language                                 : Indonesian
  367. Default                                  : No
  368. Forced                                   : No
  369.  
  370. Text #17
  371. ID                                       : 24
  372. Format                                   : UTF-8
  373. Codec ID                                 : S_TEXT/UTF8
  374. Codec ID/Info                            : UTF-8 Plain Text
  375. Duration                                 : 2 h 7 min
  376. Bit rate                                 : 80 b/s
  377. Count of elements                        : 1619
  378. Stream size                              : 74.8 KiB (0%)
  379. Language                                 : Japanese
  380. Default                                  : No
  381. Forced                                   : No
  382.  
  383. Text #18
  384. ID                                       : 25
  385. Format                                   : UTF-8
  386. Codec ID                                 : S_TEXT/UTF8
  387. Codec ID/Info                            : UTF-8 Plain Text
  388. Duration                                 : 2 h 14 min
  389. Bit rate                                 : 41 b/s
  390. Count of elements                        : 1540
  391. Stream size                              : 41.1 KiB (0%)
  392. Language                                 : Norwegian
  393. Default                                  : No
  394. Forced                                   : No
  395.  
  396. Text #19
  397. ID                                       : 26
  398. Format                                   : UTF-8
  399. Codec ID                                 : S_TEXT/UTF8
  400. Codec ID/Info                            : UTF-8 Plain Text
  401. Duration                                 : 2 h 7 min
  402. Bit rate                                 : 54 b/s
  403. Count of elements                        : 1569
  404. Stream size                              : 50.6 KiB (0%)
  405. Language                                 : Romanian
  406. Default                                  : No
  407. Forced                                   : No
  408.  
  409. Text #20
  410. ID                                       : 27
  411. Format                                   : UTF-8
  412. Codec ID                                 : S_TEXT/UTF8
  413. Codec ID/Info                            : UTF-8 Plain Text
  414. Duration                                 : 2 h 8 min
  415. Bit rate                                 : 54 b/s
  416. Count of elements                        : 1634
  417. Stream size                              : 51.1 KiB (0%)
  418. Language                                 : Spanish
  419. Default                                  : No
  420. Forced                                   : No
  421.  
  422. Text #21
  423. ID                                       : 28
  424. Format                                   : UTF-8
  425. Codec ID                                 : S_TEXT/UTF8
  426. Codec ID/Info                            : UTF-8 Plain Text
  427. Duration                                 : 2 h 14 min
  428. Bit rate                                 : 45 b/s
  429. Count of elements                        : 1555
  430. Stream size                              : 45.1 KiB (0%)
  431. Language                                 : Swedish
  432. Default                                  : No
  433. Forced                                   : No
  434.  
  435. Text #22
  436. ID                                       : 29
  437. Format                                   : UTF-8
  438. Codec ID                                 : S_TEXT/UTF8
  439. Codec ID/Info                            : UTF-8 Plain Text
  440. Duration                                 : 2 h 7 min
  441. Bit rate                                 : 54 b/s
  442. Count of elements                        : 1400
  443. Stream size                              : 50.5 KiB (0%)
  444. Language                                 : Turkish
  445. Default                                  : No
  446. Forced                                   : No
  447.  
  448. Text #23
  449. ID                                       : 30
  450. Format                                   : UTF-8
  451. Codec ID                                 : S_TEXT/UTF8
  452. Codec ID/Info                            : UTF-8 Plain Text
  453. Duration                                 : 2 h 7 min
  454. Bit rate                                 : 68 b/s
  455. Count of elements                        : 1641
  456. Stream size                              : 63.7 KiB (0%)
  457. Language                                 : Vietnamese
  458. Default                                  : No
  459. Forced                                   : No
  460.  
  461. Menu #1
  462. 00:00:00.000                             : en:Chapter 1
  463. 00:08:58.079                             : en:Chapter 2
  464. 00:20:12.544                             : en:Chapter 3
  465. 00:31:04.279                             : en:Chapter 4
  466. 00:40:54.452                             : en:Chapter 5
  467. 00:52:11.378                             : en:Chapter 6
  468. 01:04:38.416                             : en:Chapter 7
  469. 01:21:02.315                             : en:Chapter 8
  470. 01:32:01.516                             : en:Chapter 9
  471. 01:42:47.244                             : en:Chapter 10
  472. 01:50:48.225                             : en:Chapter 11
  473. 02:03:54.385                             : en:Chapter 12
  474.  
  475. Menu #2
  476. 00:00:00.000                             : en:00:00:00.000
  477. 00:09:08.506                             : en:00:09:08.506
  478. 00:20:22.972                             : en:00:20:22.972
  479. 00:31:14.706                             : en:00:31:14.706
  480. 00:41:04.879                             : en:00:41:04.879
  481. 00:52:21.805                             : en:00:52:21.805
  482. 01:04:48.843                             : en:01:04:48.843
  483. 01:21:12.743                             : en:01:21:12.743
  484. 01:32:11.943                             : en:01:32:11.943
  485. 01:42:57.671                             : en:01:42:57.671
  486. 01:50:58.652                             : en:01:50:58.652
  487. 02:04:04.812                             : en:02:04:04.812
RAW Paste Data
We use cookies for various purposes including analytics. By continuing to use Pastebin, you agree to our use of cookies as described in the Cookies Policy. OK, I Understand
 
Top