SHARE
TWEET

The.Legend.of.Drunken.Master.1994.Uncut.BluRay.Remux.1080p.AVC.DTS-HD.MA.2.0-BMF

a guest Jun 13th, 2019 63 Never
Not a member of Pastebin yet? Sign Up, it unlocks many cool features!
  1. General
  2. Complete name                            : The.Legend.of.Drunken.Master.1994.Uncut.BluRay.Remux.1080p.AVC.DTS-HD.MA.2.0-BMF.mkv
  3. Format                                   : Matroska
  4. Format version                           : Version 4
  5. File size                                : 17.3 GiB
  6. Duration                                 : 1 h 42 min
  7. Overall bit rate mode                    : Variable
  8. Overall bit rate                         : 24.3 Mb/s
  9. Encoded date                             : UTC 2018-10-17 08:16:22
  10. Writing application                      : mkvmerge v27.0.0 ('Metropolis') 64-bit
  11. Writing library                          : libebml v1.3.6 + libmatroska v1.4.9
  12.  
  13. Video
  14. ID                                       : 1
  15. Format                                   : AVC
  16. Format/Info                              : Advanced Video Codec
  17. Format profile                           : High@L4.1
  18. Format settings                          : CABAC / 4 Ref Frames
  19. Format settings, CABAC                   : Yes
  20. Format settings, Reference frames        : 4 frames
  21. Format settings, GOP                     : M=3, N=12
  22. Codec ID                                 : V_MPEG4/ISO/AVC
  23. Duration                                 : 1 h 42 min
  24. Bit rate mode                            : Variable
  25. Bit rate                                 : 19.9 Mb/s
  26. Maximum bit rate                         : 32.0 Mb/s
  27. Width                                    : 1 920 pixels
  28. Height                                   : 1 080 pixels
  29. Display aspect ratio                     : 16:9
  30. Frame rate mode                          : Constant
  31. Frame rate                               : 23.976 (24000/1001) FPS
  32. Color space                              : YUV
  33. Chroma subsampling                       : 4:2:0
  34. Bit depth                                : 8 bits
  35. Scan type                                : Progressive
  36. Bits/(Pixel*Frame)                       : 0.401
  37. Stream size                              : 14.2 GiB (82%)
  38. Title                                    : MPEG-4 AVC Video / 19993 kbps / 1080p / 23.976 fps / 16:9 / High Profile 4.1
  39. Default                                  : Yes
  40. Forced                                   : No
  41.  
  42. Audio #1
  43. ID                                       : 2
  44. Format                                   : DTS XLL
  45. Format/Info                              : Digital Theater Systems
  46. Commercial name                          : DTS-HD Master Audio
  47. Codec ID                                 : A_DTS
  48. Duration                                 : 1 h 42 min
  49. Bit rate mode                            : Variable
  50. Bit rate                                 : 2 101 kb/s
  51. Channel(s)                               : 2 channels
  52. Channel layout                           : L R
  53. Sampling rate                            : 48.0 kHz
  54. Frame rate                               : 93.750 FPS (512 SPF)
  55. Bit depth                                : 24 bits
  56. Compression mode                         : Lossless
  57. Stream size                              : 1.50 GiB (9%)
  58. Title                                    : Cantonese / DTS-HD Master Audio / 2.0 / 48 kHz / 2101 kbps / 24-bit
  59. Language                                 : Chinese
  60. Default                                  : Yes
  61. Forced                                   : No
  62.  
  63. Audio #2
  64. ID                                       : 3
  65. Format                                   : DTS XLL
  66. Format/Info                              : Digital Theater Systems
  67. Commercial name                          : DTS-HD Master Audio
  68. Codec ID                                 : A_DTS
  69. Duration                                 : 1 h 42 min
  70. Bit rate mode                            : Variable
  71. Bit rate                                 : 2 150 kb/s
  72. Channel(s)                               : 2 channels
  73. Channel layout                           : L R
  74. Sampling rate                            : 48.0 kHz
  75. Frame rate                               : 93.750 FPS (512 SPF)
  76. Bit depth                                : 24 bits
  77. Compression mode                         : Lossless
  78. Stream size                              : 1.53 GiB (9%)
  79. Title                                    : Dub / DTS-HD Master Audio / 2.0 / 48 kHz / 2150 kbps / 24-bit
  80. Language                                 : English
  81. Default                                  : No
  82. Forced                                   : No
  83.  
  84. Text #1
  85. ID                                       : 4
  86. Format                                   : UTF-8
  87. Codec ID                                 : S_TEXT/UTF8
  88. Codec ID/Info                            : UTF-8 Plain Text
  89. Duration                                 : 1 h 39 min
  90. Bit rate                                 : 68 b/s
  91. Count of elements                        : 1507
  92. Stream size                              : 49.5 KiB (0%)
  93. Language                                 : English
  94. Default                                  : Yes
  95. Forced                                   : No
  96.  
  97. Text #2
  98. ID                                       : 5
  99. Format                                   : PGS
  100. Muxing mode                              : zlib
  101. Codec ID                                 : S_HDMV/PGS
  102. Codec ID/Info                            : Picture based subtitle format used on BDs/HD-DVDs
  103. Duration                                 : 1 h 41 min
  104. Bit rate                                 : 45.8 kb/s
  105. Count of elements                        : 3407
  106. Stream size                              : 33.3 MiB (0%)
  107. Title                                    : SDH
  108. Language                                 : English
  109. Default                                  : No
  110. Forced                                   : No
  111.  
  112. Text #3
  113. ID                                       : 6
  114. Format                                   : PGS
  115. Muxing mode                              : zlib
  116. Codec ID                                 : S_HDMV/PGS
  117. Codec ID/Info                            : Picture based subtitle format used on BDs/HD-DVDs
  118. Duration                                 : 1 h 41 min
  119. Bit rate                                 : 20.6 kb/s
  120. Count of elements                        : 3029
  121. Stream size                              : 15.0 MiB (0%)
  122. Language                                 : Arabic
  123. Default                                  : No
  124. Forced                                   : No
  125.  
  126. Text #4
  127. ID                                       : 7
  128. Format                                   : PGS
  129. Muxing mode                              : zlib
  130. Codec ID                                 : S_HDMV/PGS
  131. Codec ID/Info                            : Picture based subtitle format used on BDs/HD-DVDs
  132. Duration                                 : 1 h 41 min
  133. Bit rate                                 : 32.3 kb/s
  134. Count of elements                        : 3007
  135. Stream size                              : 23.5 MiB (0%)
  136. Language                                 : Chinese
  137. Default                                  : No
  138. Forced                                   : No
  139.  
  140. Text #5
  141. ID                                       : 8
  142. Format                                   : PGS
  143. Muxing mode                              : zlib
  144. Codec ID                                 : S_HDMV/PGS
  145. Codec ID/Info                            : Picture based subtitle format used on BDs/HD-DVDs
  146. Duration                                 : 1 h 39 min
  147. Bit rate                                 : 18.1 kb/s
  148. Count of elements                        : 2583
  149. Stream size                              : 12.8 MiB (0%)
  150. Language                                 : Japanese
  151. Default                                  : No
  152. Forced                                   : No
  153.  
  154. Text #6
  155. ID                                       : 9
  156. Format                                   : PGS
  157. Muxing mode                              : zlib
  158. Codec ID                                 : S_HDMV/PGS
  159. Codec ID/Info                            : Picture based subtitle format used on BDs/HD-DVDs
  160. Duration                                 : 1 h 41 min
  161. Bit rate                                 : 28.9 kb/s
  162. Count of elements                        : 3023
  163. Stream size                              : 21.0 MiB (0%)
  164. Language                                 : Korean
  165. Default                                  : No
  166. Forced                                   : No
  167.  
  168. Text #7
  169. ID                                       : 10
  170. Format                                   : PGS
  171. Muxing mode                              : zlib
  172. Codec ID                                 : S_HDMV/PGS
  173. Codec ID/Info                            : Picture based subtitle format used on BDs/HD-DVDs
  174. Duration                                 : 1 h 41 min
  175. Bit rate                                 : 40.0 kb/s
  176. Count of elements                        : 3039
  177. Stream size                              : 29.0 MiB (0%)
  178. Language                                 : Thai
  179. Default                                  : No
  180. Forced                                   : No
  181.  
  182. Menu
  183. 00:00:00.000                             : :Chapter 1
  184. 00:08:02.523                             : :Chapter 2
  185. 00:19:44.558                             : :Chapter 3
  186. 00:28:36.923                             : :Chapter 4
  187. 00:39:04.425                             : :Chapter 5
  188. 00:49:39.601                             : :Chapter 6
  189. 00:59:01.246                             : :Chapter 7
  190. 01:09:51.520                             : :Chapter 8
  191. 01:19:48.784                             : :Chapter 9
  192. 01:27:29.619                             : :Chapter 10
RAW Paste Data
We use cookies for various purposes including analytics. By continuing to use Pastebin, you agree to our use of cookies as described in the Cookies Policy. OK, I Understand
Not a member of Pastebin yet?
Sign Up, it unlocks many cool features!
 
Top