SHARE
TWEET

The.Untouchables.1987.BluRay.1080p.DTS-HD.MA.6.1.AVC.REMUX-FraMeSToR

a guest Jun 15th, 2019 30 Never
Not a member of Pastebin yet? Sign Up, it unlocks many cool features!
  1. General
  2. Complete name                            : The.Untouchables.1987.BluRay.1080p.DTS-HD.MA.6.1.AVC.REMUX-FraMeSToR.mkv
  3. Format                                   : Matroska
  4. Format version                           : Version 4
  5. File size                                : 32.2 GiB
  6. Duration                                 : 1 h 59 min
  7. Overall bit rate mode                    : Variable
  8. Overall bit rate                         : 38.6 Mb/s
  9. Encoded date                             : UTC 2017-08-17 11:29:28
  10. Writing application                      : mkvmerge v14.0.0 ('Flow') 64bit
  11. Writing library                          : libebml v1.3.4 + libmatroska v1.4.5
  12.  
  13. Video
  14. ID                                       : 1
  15. Format                                   : AVC
  16. Format/Info                              : Advanced Video Codec
  17. Format profile                           : High@L4.1
  18. Format settings                          : CABAC / 2 Ref Frames
  19. Format settings, CABAC                   : Yes
  20. Format settings, Reference frames        : 2 frames
  21. Codec ID                                 : V_MPEG4/ISO/AVC
  22. Duration                                 : 1 h 59 min
  23. Bit rate mode                            : Variable
  24. Bit rate                                 : 33.0 Mb/s
  25. Width                                    : 1 920 pixels
  26. Height                                   : 1 080 pixels
  27. Display aspect ratio                     : 16:9
  28. Frame rate mode                          : Constant
  29. Frame rate                               : 23.976 (24000/1001) FPS
  30. Color space                              : YUV
  31. Chroma subsampling                       : 4:2:0
  32. Bit depth                                : 8 bits
  33. Scan type                                : Progressive
  34. Bits/(Pixel*Frame)                       : 0.663
  35. Stream size                              : 27.5 GiB (86%)
  36. Default                                  : Yes
  37. Forced                                   : No
  38.  
  39. Audio
  40. ID                                       : 2
  41. Format                                   : DTS ES XXCH XLL
  42. Format/Info                              : Digital Theater Systems
  43. Commercial name                          : DTS-HD Master Audio
  44. Codec ID                                 : A_DTS
  45. Duration                                 : 1 h 59 min
  46. Bit rate mode                            : Variable
  47. Bit rate                                 : 4 506 kb/s
  48. Channel(s)                               : 7 channels
  49. Channel layout                           : C L R Ls Rs LFE Cb
  50. Sampling rate                            : 48.0 kHz
  51. Frame rate                               : 93.750 FPS (512 SPF)
  52. Bit depth                                : 24 bits
  53. Compression mode                         : Lossless
  54. Stream size                              : 3.76 GiB (12%)
  55. Title                                    : DTS-HD MA 6.1
  56. Language                                 : English
  57. Default                                  : Yes
  58. Forced                                   : No
  59.  
  60. Text #1
  61. ID                                       : 3
  62. Format                                   : PGS
  63. Codec ID                                 : S_HDMV/PGS
  64. Codec ID/Info                            : Picture based subtitle format used on BDs/HD-DVDs
  65. Duration                                 : 1 h 52 min
  66. Bit rate                                 : 30.8 kb/s
  67. Count of elements                        : 2118
  68. Stream size                              : 24.7 MiB (0%)
  69. Title                                    : English
  70. Language                                 : English
  71. Default                                  : No
  72. Forced                                   : No
  73.  
  74. Text #2
  75. ID                                       : 4
  76. Format                                   : PGS
  77. Codec ID                                 : S_HDMV/PGS
  78. Codec ID/Info                            : Picture based subtitle format used on BDs/HD-DVDs
  79. Duration                                 : 1 h 52 min
  80. Bit rate                                 : 31.7 kb/s
  81. Count of elements                        : 2212
  82. Stream size                              : 25.4 MiB (0%)
  83. Title                                    : English (SDH)
  84. Language                                 : English
  85. Default                                  : No
  86. Forced                                   : No
  87.  
  88. Text #3
  89. ID                                       : 5
  90. Format                                   : PGS
  91. Codec ID                                 : S_HDMV/PGS
  92. Codec ID/Info                            : Picture based subtitle format used on BDs/HD-DVDs
  93. Duration                                 : 1 h 58 min
  94. Bit rate                                 : 25.3 kb/s
  95. Count of elements                        : 2074
  96. Stream size                              : 21.4 MiB (0%)
  97. Title                                    : French
  98. Language                                 : French
  99. Default                                  : No
  100. Forced                                   : No
  101.  
  102. Text #4
  103. ID                                       : 6
  104. Format                                   : PGS
  105. Codec ID                                 : S_HDMV/PGS
  106. Codec ID/Info                            : Picture based subtitle format used on BDs/HD-DVDs
  107. Duration                                 : 1 h 58 min
  108. Bit rate                                 : 24.6 kb/s
  109. Count of elements                        : 1972
  110. Stream size                              : 20.8 MiB (0%)
  111. Title                                    : German
  112. Language                                 : German
  113. Default                                  : No
  114. Forced                                   : No
  115.  
  116. Text #5
  117. ID                                       : 7
  118. Format                                   : PGS
  119. Codec ID                                 : S_HDMV/PGS
  120. Codec ID/Info                            : Picture based subtitle format used on BDs/HD-DVDs
  121. Duration                                 : 1 h 58 min
  122. Bit rate                                 : 27.9 kb/s
  123. Count of elements                        : 2018
  124. Stream size                              : 23.6 MiB (0%)
  125. Title                                    : Italian
  126. Language                                 : Italian
  127. Default                                  : No
  128. Forced                                   : No
  129.  
  130. Text #6
  131. ID                                       : 8
  132. Format                                   : PGS
  133. Codec ID                                 : S_HDMV/PGS
  134. Codec ID/Info                            : Picture based subtitle format used on BDs/HD-DVDs
  135. Duration                                 : 1 h 58 min
  136. Bit rate                                 : 26.1 kb/s
  137. Count of elements                        : 1986
  138. Stream size                              : 22.0 MiB (0%)
  139. Title                                    : Spanish (Castilian)
  140. Language                                 : Spanish
  141. Default                                  : No
  142. Forced                                   : No
  143.  
  144. Text #7
  145. ID                                       : 9
  146. Format                                   : PGS
  147. Codec ID                                 : S_HDMV/PGS
  148. Codec ID/Info                            : Picture based subtitle format used on BDs/HD-DVDs
  149. Duration                                 : 1 h 56 min
  150. Bit rate                                 : 22.8 kb/s
  151. Count of elements                        : 1554
  152. Stream size                              : 19.0 MiB (0%)
  153. Title                                    : Dutch
  154. Language                                 : Dutch
  155. Default                                  : No
  156. Forced                                   : No
  157.  
  158. Text #8
  159. ID                                       : 10
  160. Format                                   : PGS
  161. Codec ID                                 : S_HDMV/PGS
  162. Codec ID/Info                            : Picture based subtitle format used on BDs/HD-DVDs
  163. Duration                                 : 1 h 56 min
  164. Bit rate                                 : 27.0 kb/s
  165. Count of elements                        : 1982
  166. Stream size                              : 22.5 MiB (0%)
  167. Title                                    : Danish
  168. Language                                 : Danish
  169. Default                                  : No
  170. Forced                                   : No
  171.  
  172. Text #9
  173. ID                                       : 11
  174. Format                                   : PGS
  175. Codec ID                                 : S_HDMV/PGS
  176. Codec ID/Info                            : Picture based subtitle format used on BDs/HD-DVDs
  177. Duration                                 : 1 h 56 min
  178. Bit rate                                 : 25.3 kb/s
  179. Count of elements                        : 1984
  180. Stream size                              : 21.1 MiB (0%)
  181. Title                                    : Finnish
  182. Language                                 : Finnish
  183. Default                                  : No
  184. Forced                                   : No
  185.  
  186. Text #10
  187. ID                                       : 12
  188. Format                                   : PGS
  189. Codec ID                                 : S_HDMV/PGS
  190. Codec ID/Info                            : Picture based subtitle format used on BDs/HD-DVDs
  191. Duration                                 : 1 h 56 min
  192. Bit rate                                 : 23.0 kb/s
  193. Count of elements                        : 1938
  194. Stream size                              : 19.1 MiB (0%)
  195. Title                                    : Norwegian
  196. Language                                 : Norwegian
  197. Default                                  : No
  198. Forced                                   : No
  199.  
  200. Text #11
  201. ID                                       : 13
  202. Format                                   : PGS
  203. Codec ID                                 : S_HDMV/PGS
  204. Codec ID/Info                            : Picture based subtitle format used on BDs/HD-DVDs
  205. Duration                                 : 1 h 58 min
  206. Bit rate                                 : 26.6 kb/s
  207. Count of elements                        : 1988
  208. Stream size                              : 22.4 MiB (0%)
  209. Title                                    : Portuguese (Brazilian)
  210. Language                                 : Portuguese
  211. Default                                  : No
  212. Forced                                   : No
  213.  
  214. Text #12
  215. ID                                       : 14
  216. Format                                   : PGS
  217. Codec ID                                 : S_HDMV/PGS
  218. Codec ID/Info                            : Picture based subtitle format used on BDs/HD-DVDs
  219. Duration                                 : 1 h 56 min
  220. Bit rate                                 : 19.7 kb/s
  221. Count of elements                        : 1356
  222. Stream size                              : 16.4 MiB (0%)
  223. Title                                    : Swedish
  224. Language                                 : Swedish
  225. Default                                  : No
  226. Forced                                   : No
  227.  
  228. Text #13
  229. ID                                       : 15
  230. Format                                   : PGS
  231. Codec ID                                 : S_HDMV/PGS
  232. Codec ID/Info                            : Picture based subtitle format used on BDs/HD-DVDs
  233. Duration                                 : 1 h 52 min
  234. Bit rate                                 : 17.0 kb/s
  235. Count of elements                        : 2224
  236. Stream size                              : 13.7 MiB (0%)
  237. Title                                    : Arabic
  238. Language                                 : Arabic
  239. Default                                  : No
  240. Forced                                   : No
  241.  
  242. Text #14
  243. ID                                       : 16
  244. Format                                   : PGS
  245. Codec ID                                 : S_HDMV/PGS
  246. Codec ID/Info                            : Picture based subtitle format used on BDs/HD-DVDs
  247. Duration                                 : 1 h 52 min
  248. Bit rate                                 : 37.6 kb/s
  249. Count of elements                        : 2230
  250. Stream size                              : 30.3 MiB (0%)
  251. Title                                    : Indonesian
  252. Language                                 : Indonesian
  253. Default                                  : No
  254. Forced                                   : No
  255.  
  256. Text #15
  257. ID                                       : 17
  258. Format                                   : PGS
  259. Codec ID                                 : S_HDMV/PGS
  260. Codec ID/Info                            : Picture based subtitle format used on BDs/HD-DVDs
  261. Duration                                 : 1 h 52 min
  262. Bit rate                                 : 36.5 kb/s
  263. Count of elements                        : 2222
  264. Stream size                              : 29.4 MiB (0%)
  265. Title                                    : Malay
  266. Language                                 : Malay
  267. Default                                  : No
  268. Forced                                   : No
  269.  
  270. Text #16
  271. ID                                       : 18
  272. Format                                   : PGS
  273. Codec ID                                 : S_HDMV/PGS
  274. Codec ID/Info                            : Picture based subtitle format used on BDs/HD-DVDs
  275. Duration                                 : 1 h 54 min
  276. Bit rate                                 : 32.2 kb/s
  277. Count of elements                        : 2284
  278. Stream size                              : 26.3 MiB (0%)
  279. Title                                    : Bulgarian
  280. Language                                 : Bulgarian
  281. Default                                  : No
  282. Forced                                   : No
  283.  
  284. Text #17
  285. ID                                       : 19
  286. Format                                   : PGS
  287. Codec ID                                 : S_HDMV/PGS
  288. Codec ID/Info                            : Picture based subtitle format used on BDs/HD-DVDs
  289. Duration                                 : 1 h 54 min
  290. Bit rate                                 : 25.8 kb/s
  291. Count of elements                        : 2202
  292. Stream size                              : 21.0 MiB (0%)
  293. Title                                    : Chinese (Cantonese)
  294. Language                                 : Chinese
  295. Default                                  : No
  296. Forced                                   : No
  297.  
  298. Text #18
  299. ID                                       : 20
  300. Format                                   : PGS
  301. Codec ID                                 : S_HDMV/PGS
  302. Codec ID/Info                            : Picture based subtitle format used on BDs/HD-DVDs
  303. Duration                                 : 1 h 54 min
  304. Bit rate                                 : 24.6 kb/s
  305. Count of elements                        : 2234
  306. Stream size                              : 20.1 MiB (0%)
  307. Title                                    : Croatian
  308. Language                                 : Croatian
  309. Default                                  : No
  310. Forced                                   : No
  311.  
  312. Text #19
  313. ID                                       : 21
  314. Format                                   : PGS
  315. Codec ID                                 : S_HDMV/PGS
  316. Codec ID/Info                            : Picture based subtitle format used on BDs/HD-DVDs
  317. Duration                                 : 1 h 54 min
  318. Bit rate                                 : 29.0 kb/s
  319. Count of elements                        : 2194
  320. Stream size                              : 23.7 MiB (0%)
  321. Title                                    : Czech
  322. Language                                 : Czech
  323. Default                                  : No
  324. Forced                                   : No
  325.  
  326. Text #20
  327. ID                                       : 22
  328. Format                                   : PGS
  329. Codec ID                                 : S_HDMV/PGS
  330. Codec ID/Info                            : Picture based subtitle format used on BDs/HD-DVDs
  331. Duration                                 : 1 h 54 min
  332. Bit rate                                 : 31.9 kb/s
  333. Count of elements                        : 2230
  334. Stream size                              : 26.1 MiB (0%)
  335. Title                                    : Estonian
  336. Language                                 : Estonian
  337. Default                                  : No
  338. Forced                                   : No
  339.  
  340. Text #21
  341. ID                                       : 23
  342. Format                                   : PGS
  343. Codec ID                                 : S_HDMV/PGS
  344. Codec ID/Info                            : Picture based subtitle format used on BDs/HD-DVDs
  345. Duration                                 : 1 h 54 min
  346. Bit rate                                 : 31.1 kb/s
  347. Count of elements                        : 2264
  348. Stream size                              : 25.4 MiB (0%)
  349. Title                                    : Greek
  350. Language                                 : Greek
  351. Default                                  : No
  352. Forced                                   : No
  353.  
  354. Text #22
  355. ID                                       : 24
  356. Format                                   : PGS
  357. Codec ID                                 : S_HDMV/PGS
  358. Codec ID/Info                            : Picture based subtitle format used on BDs/HD-DVDs
  359. Duration                                 : 1 h 54 min
  360. Bit rate                                 : 20.9 kb/s
  361. Count of elements                        : 2230
  362. Stream size                              : 17.1 MiB (0%)
  363. Title                                    : Hebrew
  364. Language                                 : Hebrew
  365. Default                                  : No
  366. Forced                                   : No
  367.  
  368. Text #23
  369. ID                                       : 25
  370. Format                                   : PGS
  371. Codec ID                                 : S_HDMV/PGS
  372. Codec ID/Info                            : Picture based subtitle format used on BDs/HD-DVDs
  373. Duration                                 : 1 h 54 min
  374. Bit rate                                 : 19.8 kb/s
  375. Count of elements                        : 2232
  376. Stream size                              : 16.2 MiB (0%)
  377. Title                                    : Hindi
  378. Language                                 : Hindi
  379. Default                                  : No
  380. Forced                                   : No
  381.  
  382. Text #24
  383. ID                                       : 26
  384. Format                                   : PGS
  385. Codec ID                                 : S_HDMV/PGS
  386. Codec ID/Info                            : Picture based subtitle format used on BDs/HD-DVDs
  387. Duration                                 : 1 h 54 min
  388. Bit rate                                 : 31.8 kb/s
  389. Count of elements                        : 2192
  390. Stream size                              : 26.0 MiB (0%)
  391. Title                                    : Hungarian
  392. Language                                 : Hungarian
  393. Default                                  : No
  394. Forced                                   : No
  395.  
  396. Text #25
  397. ID                                       : 27
  398. Format                                   : PGS
  399. Codec ID                                 : S_HDMV/PGS
  400. Codec ID/Info                            : Picture based subtitle format used on BDs/HD-DVDs
  401. Duration                                 : 1 h 54 min
  402. Bit rate                                 : 33.6 kb/s
  403. Count of elements                        : 2230
  404. Stream size                              : 27.4 MiB (0%)
  405. Title                                    : Icelandic
  406. Language                                 : Icelandic
  407. Default                                  : No
  408. Forced                                   : No
  409.  
  410. Text #26
  411. ID                                       : 28
  412. Format                                   : PGS
  413. Codec ID                                 : S_HDMV/PGS
  414. Codec ID/Info                            : Picture based subtitle format used on BDs/HD-DVDs
  415. Duration                                 : 1 h 52 min
  416. Bit rate                                 : 17.3 kb/s
  417. Count of elements                        : 1954
  418. Stream size                              : 13.9 MiB (0%)
  419. Title                                    : Japanese
  420. Language                                 : Japanese
  421. Default                                  : No
  422. Forced                                   : No
  423.  
  424. Text #27
  425. ID                                       : 29
  426. Format                                   : PGS
  427. Codec ID                                 : S_HDMV/PGS
  428. Codec ID/Info                            : Picture based subtitle format used on BDs/HD-DVDs
  429. Duration                                 : 1 h 54 min
  430. Bit rate                                 : 20.1 kb/s
  431. Count of elements                        : 2238
  432. Stream size                              : 16.4 MiB (0%)
  433. Title                                    : Korean
  434. Language                                 : Korean
  435. Default                                  : No
  436. Forced                                   : No
  437.  
  438. Text #28
  439. ID                                       : 30
  440. Format                                   : PGS
  441. Codec ID                                 : S_HDMV/PGS
  442. Codec ID/Info                            : Picture based subtitle format used on BDs/HD-DVDs
  443. Duration                                 : 1 h 54 min
  444. Bit rate                                 : 31.2 kb/s
  445. Count of elements                        : 2232
  446. Stream size                              : 25.5 MiB (0%)
  447. Title                                    : Latvian
  448. Language                                 : Latvian
  449. Default                                  : No
  450. Forced                                   : No
  451.  
  452. Text #29
  453. ID                                       : 31
  454. Format                                   : PGS
  455. Codec ID                                 : S_HDMV/PGS
  456. Codec ID/Info                            : Picture based subtitle format used on BDs/HD-DVDs
  457. Duration                                 : 1 h 54 min
  458. Bit rate                                 : 31.0 kb/s
  459. Count of elements                        : 2230
  460. Stream size                              : 25.3 MiB (0%)
  461. Title                                    : Lithuanian
  462. Language                                 : Lithuanian
  463. Default                                  : No
  464. Forced                                   : No
  465.  
  466. Text #30
  467. ID                                       : 32
  468. Format                                   : PGS
  469. Codec ID                                 : S_HDMV/PGS
  470. Codec ID/Info                            : Picture based subtitle format used on BDs/HD-DVDs
  471. Duration                                 : 1 h 54 min
  472. Bit rate                                 : 25.0 kb/s
  473. Count of elements                        : 2220
  474. Stream size                              : 20.5 MiB (0%)
  475. Title                                    : Chinese (Mandarin Traditional)
  476. Language                                 : Chinese
  477. Default                                  : No
  478. Forced                                   : No
  479.  
  480. Text #31
  481. ID                                       : 33
  482. Format                                   : PGS
  483. Codec ID                                 : S_HDMV/PGS
  484. Codec ID/Info                            : Picture based subtitle format used on BDs/HD-DVDs
  485. Duration                                 : 1 h 54 min
  486. Bit rate                                 : 30.0 kb/s
  487. Count of elements                        : 2194
  488. Stream size                              : 24.5 MiB (0%)
  489. Title                                    : Polish
  490. Language                                 : Polish
  491. Default                                  : No
  492. Forced                                   : No
  493.  
  494. Text #32
  495. ID                                       : 34
  496. Format                                   : PGS
  497. Codec ID                                 : S_HDMV/PGS
  498. Codec ID/Info                            : Picture based subtitle format used on BDs/HD-DVDs
  499. Duration                                 : 1 h 54 min
  500. Bit rate                                 : 30.5 kb/s
  501. Count of elements                        : 2228
  502. Stream size                              : 25.0 MiB (0%)
  503. Title                                    : Portuguese (Iberian)
  504. Language                                 : Portuguese
  505. Default                                  : No
  506. Forced                                   : No
  507.  
  508. Text #33
  509. ID                                       : 35
  510. Format                                   : PGS
  511. Codec ID                                 : S_HDMV/PGS
  512. Codec ID/Info                            : Picture based subtitle format used on BDs/HD-DVDs
  513. Duration                                 : 1 h 54 min
  514. Bit rate                                 : 31.7 kb/s
  515. Count of elements                        : 2230
  516. Stream size                              : 25.9 MiB (0%)
  517. Title                                    : Romanian
  518. Language                                 : Romanian
  519. Default                                  : No
  520. Forced                                   : No
  521.  
  522. Text #34
  523. ID                                       : 36
  524. Format                                   : PGS
  525. Codec ID                                 : S_HDMV/PGS
  526. Codec ID/Info                            : Picture based subtitle format used on BDs/HD-DVDs
  527. Duration                                 : 1 h 54 min
  528. Bit rate                                 : 32.2 kb/s
  529. Count of elements                        : 2196
  530. Stream size                              : 26.3 MiB (0%)
  531. Title                                    : Russian
  532. Language                                 : Russian
  533. Default                                  : No
  534. Forced                                   : No
  535.  
  536. Text #35
  537. ID                                       : 37
  538. Format                                   : PGS
  539. Codec ID                                 : S_HDMV/PGS
  540. Codec ID/Info                            : Picture based subtitle format used on BDs/HD-DVDs
  541. Duration                                 : 1 h 54 min
  542. Bit rate                                 : 25.8 kb/s
  543. Count of elements                        : 2232
  544. Stream size                              : 21.1 MiB (0%)
  545. Title                                    : Serbian
  546. Language                                 : Serbian
  547. Default                                  : No
  548. Forced                                   : No
  549.  
  550. Text #36
  551. ID                                       : 38
  552. Format                                   : PGS
  553. Codec ID                                 : S_HDMV/PGS
  554. Codec ID/Info                            : Picture based subtitle format used on BDs/HD-DVDs
  555. Duration                                 : 1 h 54 min
  556. Bit rate                                 : 32.7 kb/s
  557. Count of elements                        : 2232
  558. Stream size                              : 26.7 MiB (0%)
  559. Title                                    : Slovak
  560. Language                                 : Slovak
  561. Default                                  : No
  562. Forced                                   : No
  563.  
  564. Text #37
  565. ID                                       : 39
  566. Format                                   : PGS
  567. Codec ID                                 : S_HDMV/PGS
  568. Codec ID/Info                            : Picture based subtitle format used on BDs/HD-DVDs
  569. Duration                                 : 1 h 54 min
  570. Bit rate                                 : 29.2 kb/s
  571. Count of elements                        : 2232
  572. Stream size                              : 23.8 MiB (0%)
  573. Title                                    : Slovenian
  574. Language                                 : Slovenian
  575. Default                                  : No
  576. Forced                                   : No
  577.  
  578. Text #38
  579. ID                                       : 40
  580. Format                                   : PGS
  581. Codec ID                                 : S_HDMV/PGS
  582. Codec ID/Info                            : Picture based subtitle format used on BDs/HD-DVDs
  583. Duration                                 : 1 h 54 min
  584. Bit rate                                 : 24.4 kb/s
  585. Count of elements                        : 2159
  586. Stream size                              : 20.0 MiB (0%)
  587. Title                                    : Thai
  588. Language                                 : Thai
  589. Default                                  : No
  590. Forced                                   : No
  591.  
  592. Text #39
  593. ID                                       : 41
  594. Format                                   : PGS
  595. Codec ID                                 : S_HDMV/PGS
  596. Codec ID/Info                            : Picture based subtitle format used on BDs/HD-DVDs
  597. Duration                                 : 1 h 54 min
  598. Bit rate                                 : 31.0 kb/s
  599. Count of elements                        : 2208
  600. Stream size                              : 25.3 MiB (0%)
  601. Title                                    : Turkish
  602. Language                                 : Turkish
  603. Default                                  : No
  604. Forced                                   : No
  605.  
  606. Text #40
  607. ID                                       : 42
  608. Format                                   : PGS
  609. Codec ID                                 : S_HDMV/PGS
  610. Codec ID/Info                            : Picture based subtitle format used on BDs/HD-DVDs
  611. Duration                                 : 1 h 54 min
  612. Bit rate                                 : 30.7 kb/s
  613. Count of elements                        : 2238
  614. Stream size                              : 25.1 MiB (0%)
  615. Title                                    : Ukrainian
  616. Language                                 : Ukrainian
  617. Default                                  : No
  618. Forced                                   : No
  619.  
  620. Menu
  621. 00:00:00.000                             : en:Opening Credits
  622. 00:02:43.830                             : en:The Time of Al Capone
  623. 00:06:42.193                             : en:At Home with Eliot Ness
  624. 00:08:17.372                             : en:Ness Speaks Out
  625. 00:10:40.098                             : en:First Plan
  626. 00:16:00.501                             : en:Ness Meets Malone
  627. 00:19:39.220                             : en:The Ness Mess
  628. 00:23:13.309                             : en:Malone Advises
  629. 00:29:40.320                             : en:Building the Team
  630. 00:34:01.081                             : en:First Raid
  631. 00:36:01.076                             : en:Celebration
  632. 00:41:03.252                             : en:A Bribe
  633. 00:43:27.688                             : en:Protecting the Family
  634. 00:47:33.059                             : en:Canadian Confiscation
  635. 01:01:35.275                             : en:Capone Strikes Back
  636. 01:08:18.219                             : en:Ness Swears Revenge
  637. 01:17:17.758                             : en:A Night at the Opera
  638. 01:18:34.793                             : en:1634 Racine
  639. 01:22:12.761                             : en:A Final Gesture
  640. 01:26:22.844                             : en:The Station Steps
  641. 01:35:58.920                             : en:Courtroom
  642. 01:39:09.944                             : en:Ness' Justice
  643. 01:47:21.352                             : en:Finale
  644. 01:55:30.173                             : en:End Credits
RAW Paste Data
We use cookies for various purposes including analytics. By continuing to use Pastebin, you agree to our use of cookies as described in the Cookies Policy. OK, I Understand
 
Top