Guest User

An.Education.2009.1080p.BluRay.x264-CtrlHD

a guest
May 20th, 2019
37
Never
Not a member of Pastebin yet? Sign Up, it unlocks many cool features!
  1. General
  2. Unique ID                                : 216513229739729203359216360382368835964 (0xA2E2EE667A179C75B0B3E40CCDABE97C)
  3. Complete name                            : An.Education.2009.1080p.BluRay.x264-CtrlHD.mkv
  4. Format                                   : Matroska
  5. Format version                           : Version 2
  6. File size                                : 12.0 GiB
  7. Duration                                 : 1 h 40 min
  8. Overall bit rate mode                    : Variable
  9. Overall bit rate                         : 17.1 Mb/s
  10. Encoded date                             : UTC 2010-03-22 07:20:26
  11. Writing application                      : mkvmerge v3.0.0 ('Hang up your Hang-Ups') 编译于 Dec 12 2009 15:20:35
  12. Writing library                          : libebml v0.7.9 + libmatroska v0.8.1
  13.  
  14. Video
  15. ID                                       : 1
  16. Format                                   : AVC
  17. Format/Info                              : Advanced Video Codec
  18. Format profile                           : High@L4.1
  19. Format settings                          : CABAC / 5 Ref Frames
  20. Format settings, CABAC                   : Yes
  21. Format settings, Reference frames        : 5 frames
  22. Codec ID                                 : V_MPEG4/ISO/AVC
  23. Duration                                 : 1 h 40 min
  24. Bit rate                                 : 15.2 Mb/s
  25. Width                                    : 1 920 pixels
  26. Height                                   : 818 pixels
  27. Display aspect ratio                     : 2.35:1
  28. Frame rate mode                          : Constant
  29. Frame rate                               : 23.976 (24000/1001) FPS
  30. Color space                              : YUV
  31. Chroma subsampling                       : 4:2:0
  32. Bit depth                                : 8 bits
  33. Scan type                                : Progressive
  34. Bits/(Pixel*Frame)                       : 0.403
  35. Stream size                              : 10.6 GiB (89%)
  36. Title                                    : 15500 kbps
  37. Language                                 : English
  38. Default                                  : Yes
  39. Forced                                   : No
  40.  
  41. Audio #1
  42. ID                                       : 2
  43. Format                                   : DTS
  44. Format/Info                              : Digital Theater Systems
  45. Codec ID                                 : A_DTS
  46. Duration                                 : 1 h 40 min
  47. Bit rate mode                            : Constant
  48. Bit rate                                 : 1 509 kb/s
  49. Channel(s)                               : 6 channels
  50. Channel layout                           : C L R Ls Rs LFE
  51. Sampling rate                            : 48.0 kHz
  52. Frame rate                               : 93.750 FPS (512 SPF)
  53. Bit depth                                : 24 bits
  54. Compression mode                         : Lossy
  55. Stream size                              : 1.06 GiB (9%)
  56. Title                                    : Main Audio DTS 5.1 @ 1.5 mbps
  57. Language                                 : English
  58. Default                                  : Yes
  59. Forced                                   : No
  60.  
  61. Audio #2
  62. ID                                       : 3
  63. Format                                   : Vorbis
  64. Format settings, Floor                   : 1
  65. Codec ID                                 : A_VORBIS
  66. Duration                                 : 1 h 40 min
  67. Bit rate mode                            : Variable
  68. Bit rate                                 : 80.0 kb/s
  69. Channel(s)                               : 2 channels
  70. Sampling rate                            : 44.1 kHz
  71. Compression mode                         : Lossy
  72. Stream size                              : 57.4 MiB (0%)
  73. Title                                    : Commentary Vorbis 2.0
  74. Writing application                      : VLC media player
  75. Writing library                          : libVorbis 1.2 (UTC 2007-06-22)
  76. Language                                 : English
  77. Default                                  : No
  78. Forced                                   : No
  79.  
  80. Text #1
  81. ID                                       : 4
  82. Format                                   : UTF-8
  83. Codec ID                                 : S_TEXT/UTF8
  84. Codec ID/Info                            : UTF-8 Plain Text
  85. Title                                    : English Sub
  86. Language                                 : English
  87. Default                                  : Yes
  88. Forced                                   : No
  89.  
  90. Text #2
  91. ID                                       : 5
  92. Format                                   : UTF-8
  93. Codec ID                                 : S_TEXT/UTF8
  94. Codec ID/Info                            : UTF-8 Plain Text
  95. Title                                    : Chinese Sub
  96. Language                                 : Chinese
  97. Default                                  : No
  98. Forced                                   : No
RAW Paste Data