SHARE
TWEET

Young.Guns.1988.REMUX.1080p.BluRay.AVC.DTS-HD.HR.6.1-LEGi0N

a guest Jun 16th, 2019 83 Never
Not a member of Pastebin yet? Sign Up, it unlocks many cool features!
  1. General
  2. Complete name                            : Young.Guns.1988.REMUX.1080p.BluRay.AVC.DTS-HD.HR.6.1-LEGi0N.mkv
  3. Format                                   : Matroska
  4. Format version                           : Version 4
  5. File size                                : 16.4 GiB
  6. Duration                                 : 1 h 46 min
  7. Overall bit rate mode                    : Variable
  8. Overall bit rate                         : 22.0 Mb/s
  9. Encoded date                             : UTC 2017-03-21 16:08:45
  10. Writing application                      : mkvmerge v9.9.0 ('Pick Up') 64bit
  11. Writing library                          : libebml v1.3.4 + libmatroska v1.4.5
  12.  
  13. Video
  14. ID                                       : 1
  15. Format                                   : AVC
  16. Format/Info                              : Advanced Video Codec
  17. Format profile                           : High@L4.1
  18. Format settings                          : CABAC / 4 Ref Frames
  19. Format settings, CABAC                   : Yes
  20. Format settings, Reference frames        : 4 frames
  21. Format settings, GOP                     : M=3, N=24
  22. Codec ID                                 : V_MPEG4/ISO/AVC
  23. Duration                                 : 1 h 46 min
  24. Bit rate mode                            : Variable
  25. Bit rate                                 : 18.9 Mb/s
  26. Maximum bit rate                         : 25.0 Mb/s
  27. Width                                    : 1 920 pixels
  28. Height                                   : 1 080 pixels
  29. Display aspect ratio                     : 16:9
  30. Frame rate mode                          : Constant
  31. Frame rate                               : 23.976 (24000/1001) FPS
  32. Standard                                 : NTSC
  33. Color space                              : YUV
  34. Chroma subsampling                       : 4:2:0
  35. Bit depth                                : 8 bits
  36. Scan type                                : Progressive
  37. Bits/(Pixel*Frame)                       : 0.381
  38. Stream size                              : 14.1 GiB (86%)
  39. Title                                    : English
  40. Language                                 : English
  41. Default                                  : Yes
  42. Forced                                   : No
  43. Color range                              : Limited
  44. Color primaries                          : BT.709
  45. Transfer characteristics                 : BT.709
  46. Matrix coefficients                      : BT.709
  47.  
  48. Audio
  49. ID                                       : 2
  50. Format                                   : DTS ES XXCH XBR
  51. Format/Info                              : Digital Theater Systems
  52. Commercial name                          : DTS-HD High Resolution Audio
  53. Codec ID                                 : A_DTS
  54. Duration                                 : 1 h 46 min
  55. Bit rate mode                            : Constant
  56. Bit rate                                 : 3 039 kb/s
  57. Channel(s)                               : 7 channels
  58. Channel layout                           : C L R Ls Rs LFE Cb
  59. Sampling rate                            : 48.0 kHz
  60. Frame rate                               : 93.750 FPS (512 SPF)
  61. Bit depth                                : 24 bits
  62. Compression mode                         : Lossy
  63. Stream size                              : 2.27 GiB (14%)
  64. Title                                    : English
  65. Language                                 : English
  66. Default                                  : Yes
  67. Forced                                   : No
  68.  
  69. Menu
  70. 00:00:00.000                             : en:00:00:00.000
  71. 00:06:59.169                             : en:00:06:59.169
  72. 00:16:21.856                             : en:00:16:21.856
  73. 00:32:00.627                             : en:00:32:00.627
  74. 00:46:08.432                             : en:00:46:08.432
  75. 01:00:05.560                             : en:01:00:05.560
  76. 01:12:57.456                             : en:01:12:57.456
  77. 01:23:33.508                             : en:01:23:33.508
  78. 01:31:20.975                             : en:01:31:20.975
  79. 01:41:27.957                             : en:01:41:27.957
RAW Paste Data
We use cookies for various purposes including analytics. By continuing to use Pastebin, you agree to our use of cookies as described in the Cookies Policy. OK, I Understand
Not a member of Pastebin yet?
Sign Up, it unlocks many cool features!
 
Top