Guest User

[Doki] Idol Time PriPara - 003 (1280x720 HEVC AAC).mkv

a guest
May 22nd, 2017
568
Never
Not a member of Pastebin yet? Sign Up, it unlocks many cool features!
  1. General
  2. Format : Matroska
  3. Format version : Version 4 / Version 2
  4. File size : 365 MiB
  5. Duration : 24 min 20 s
  6. Overall bit rate : 2 099 kb/s
  7. Movie name : [Doki] Idol Time PriPara - 003
  8. Encoded date : UTC 2017-04-24 02:58:50
  9. Writing application : mkvmerge v10.0.0 ('To Drown In You') 64bit
  10. Writing library : libebml v1.3.4 + libmatroska v1.4.5
  11. Attachments : ObelixPro-cyr.ttf / Passing Notes.ttf / VarelaRound-Regular.ttf / VestaPro-Black.otf / VestaPro-Bold.otf / VestaPro-BoldItalic.otf / webdings.ttf / DFMrm9.ttc / arial.ttf / BOOKOSB.TTF / CAC Moose.ttf / Change Tomorrow Today.ttf / ComicNeue-Bold.ttf / Edmondsans-Bold.otf
  12.  
  13. Video
  14. ID : 1
  15. Format : HEVC
  16. Format/Info : High Efficiency Video Coding
  17. Format profile : Main 10@L3.1@Main
  18. Codec ID : V_MPEGH/ISO/HEVC
  19. Duration : 24 min 19 s
  20. Bit rate : 1 909 kb/s
  21. Width : 1 280 pixels
  22. Height : 720 pixels
  23. Display aspect ratio : 16:9
  24. Frame rate mode : Constant
  25. Frame rate : 23.976 (24000/1001) FPS
  26. Color space : YUV
  27. Chroma subsampling : 4:2:0
  28. Bit depth : 10 bits
  29. Bits/(Pixel*Frame) : 0.086
  30. Stream size : 332 MiB (91%)
  31. Writing library : x265 2.3+28-08a05ca9fd16c9f5:[Windows][GCC 6.3.0][64 bit] 10bit: KG7x [x265.ru]
  32. Encoding settings : cpuid=1173503 / frame-threads=3 / numa-pools=8 / wpp / no-pmode / no-pme / no-psnr / no-ssim / log-level=2 / input-csp=1 / input-res=1280x720 / interlace=0 / total-frames=35002 / level-idc=0 / high-tier=1 / uhd-bd=0 / ref=5 / no-allow-non-conformance / no-repeat-headers / annexb / no-aud / no-hrd / info / hash=0 / no-temporal-layers / open-gop / min-keyint=23 / keyint=250 / bframes=8 / b-adapt=2 / b-pyramid / bframe-bias=0 / rc-lookahead=40 / lookahead-slices=0 / scenecut=40 / no-intra-refresh / ctu=64 / min-cu-size=8 / rect / amp / max-tu-size=32 / tu-inter-depth=3 / tu-intra-depth=3 / limit-tu=4 / rdoq-level=2 / dynamic-rd=0.00 / signhide / no-tskip / nr-intra=0 / nr-inter=0 / no-constrained-intra / strong-intra-smoothing / max-merge=4 / limit-refs=1 / limit-modes / me=3 / subme=4 / merange=57 / temporal-mvp / weightp / weightb / no-analyze-src-pics / deblock=0:0 / sao / no-sao-non-deblock / rd=6 / no-early-skip / rskip / no-fast-intra / no-tskip-fast / no-cu-lossless / b-intra / rdpenalty=0 / psy-rd=2.00 / psy-rdoq=1.00 / no-rd-refine / analysis-mode=0 / no-lossless / cbqpoffs=0 / crqpoffs=0 / rc=crf / crf=18.0 / qcomp=0.60 / qpstep=4 / stats-write=0 / stats-read=0 / ipratio=1.40 / pbratio=1.30 / aq-mode=1 / aq-strength=1.00 / cutree / zone-count=0 / no-strict-cbr / qg-size=32 / no-rc-grain / qpmax=69 / qpmin=0 / sar=0 / overscan=0 / videoformat=5 / range=0 / colorprim=2 / transfer=2 / colormatrix=2 / chromaloc=0 / display-window=0 / max-cll=0,0 / min-luma=0 / max-luma=1023 / log2-max-poc-lsb=8 / vui-timing-info / vui-hrd-info / slices=1 / opt-qp-pps / opt-ref-list-length-pps / no-multi-pass-opt-rps / scenecut-bias=0.05 / no-opt-cu-delta-qp / no-aq-motion / no-hdr / no-hdr-opt / refine-level=5
  33. Language : Japanese
  34. Default : Yes
  35. Forced : No
  36.  
  37. Audio
  38. ID : 2
  39. Format : AAC
  40. Format/Info : Advanced Audio Codec
  41. Format profile : HE-AAC / LC
  42. Codec ID : A_AAC
  43. Duration : 24 min 19 s
  44. Bit rate : 139 kb/s
  45. Channel(s) : 2 channels
  46. Channel positions : Front: L R
  47. Sampling rate : 48.0 kHz / 24.0 kHz
  48. Frame rate : 23.438 FPS (1024 spf)
  49. Compression mode : Lossy
  50. Delay relative to video : 31 ms
  51. Stream size : 24.2 MiB (7%)
  52. Language : Japanese
  53. Default : Yes
  54. Forced : No
  55.  
  56. Text
  57. ID : 3
  58. Format : ASS
  59. Codec ID : S_TEXT/ASS
  60. Codec ID/Info : Advanced Sub Station Alpha
  61. Duration : 24 min 18 s
  62. Bit rate : 10.4 kb/s
  63. Count of elements : 9916
  64. Compression mode : Lossless
  65. Stream size : 1.82 MiB (0%)
  66. Language : English
  67. Default : Yes
  68. Forced : No
  69.  
  70. Menu
  71. 00:00:00.000 : en:Prologue
  72. 00:01:09.040 : en:OP
  73. 00:02:38.970 : en:Part A
  74. 00:12:46.870 : en:Part B
  75. 00:22:19.900 : en:ED
  76. 00:23:49.860 : en:Preview
RAW Paste Data