TolstiyMob

Katanagatari Vol.12 Ento Ju

Dec 2nd, 2011
78
Never
Not a member of Pastebin yet? Sign Up, it unlocks many cool features!
  1. Disc Title: BDROM
  2. Disc Size: 17 639 814 399 bytes
  3. Protection: AACS
  4. BD-Java: No
  5. BDInfo: 0.5.6
  6.  
  7. Notes:
  8.  
  9. BDINFO HOME:
  10. Cinema Squid
  11. http://www.cinemasquid.com/blu-ray/tools/bdinfo
  12.  
  13. INCLUDES FORUMS REPORT FOR:
  14. AVS Forum Blu-ray Audio and Video Specifications Thread
  15. http://www.avsforum.com/avs-vb/showthread.php?t=1155731
  16.  
  17.  
  18. ********************
  19. PLAYLIST: 00000.MPLS
  20. ********************
  21.  
  22. <--- BEGIN FORUMS PASTE --->
  23. [code]
  24. Total Video
  25. Title Codec Length Movie Size Disc Size Bitrate Bitrate Main Audio Track Secondary Audio Track
  26. ----- ------ ------- -------------- -------------- ------- ------- ------------------ ---------------------
  27. 00000.MPLS AVC 0:49:19 15 670 419 456 17 639 814 399 42,35 38,14 LPCM 2.0 2304Kbps (48kHz/24-bit)
  28. [/code]
  29.  
  30. [code]
  31.  
  32. DISC INFO:
  33.  
  34. Disc Title: BDROM
  35. Disc Size: 17 639 814 399 bytes
  36. Protection: AACS
  37. BD-Java: No
  38. BDInfo: 0.5.6
  39.  
  40. PLAYLIST REPORT:
  41.  
  42. Name: 00000.MPLS
  43. Length: 0:49:19 (h:m:s)
  44. Size: 15 670 419 456 bytes
  45. Total Bitrate: 42,35 Mbps
  46.  
  47. VIDEO:
  48.  
  49. Codec Bitrate Description
  50. ----- ------- -----------
  51. MPEG-4 AVC Video 38139 kbps 1080p / 23,976 fps / 16:9 / High Profile 4.1
  52.  
  53. AUDIO:
  54.  
  55. Codec Language Bitrate Description
  56. ----- -------- ------- -----------
  57. LPCM Audio Japanese 2304 kbps 2.0 / 48 kHz / 2304 kbps / 24-bit
  58.  
  59. FILES:
  60.  
  61. Name Time In Length Size Total Bitrate
  62. ---- ------- ------ ---- -------------
  63. 00000.M2TS 0:00:00.000 0:49:19.957 15 670 419 456 42 353
  64.  
  65. CHAPTERS:
  66.  
  67. Number Time In Length Avg Video Rate Max 1-Sec Rate Max 1-Sec Time Max 5-Sec Rate Max 5-Sec Time Max 10Sec Rate Max 10Sec Time Avg Frame Size Max Frame Size Max Frame Time
  68. ------ ------- ------ -------------- -------------- -------------- -------------- -------------- -------------- -------------- -------------- -------------- --------------
  69. 1 0:00:00.000 0:00:59.059 38 522 kbps 44 215 kbps 00:00:01.668 40 054 kbps 00:00:22.939 39 805 kbps 00:00:17.934 200 695 bytes 631 751 bytes 00:00:11.302
  70. 2 0:00:59.059 0:01:29.964 38 553 kbps 50 132 kbps 00:02:03.581 40 989 kbps 00:01:59.577 40 198 kbps 00:01:54.572 200 996 bytes 640 899 bytes 00:02:01.704
  71. 3 0:02:29.023 0:13:06.952 38 360 kbps 43 950 kbps 00:02:53.506 40 386 kbps 00:14:16.897 39 998 kbps 00:05:59.317 199 992 bytes 640 681 bytes 00:04:03.034
  72. 4 0:15:35.976 0:06:17.001 39 164 kbps 44 691 kbps 00:21:03.845 40 681 kbps 00:19:34.256 39 962 kbps 00:19:29.126 204 181 bytes 634 535 bytes 00:16:16.809
  73. 5 0:21:52.978 0:09:55.011 36 561 kbps 53 341 kbps 00:26:14.572 40 459 kbps 00:27:22.432 39 970 kbps 00:27:17.427 190 612 bytes 633 181 bytes 00:24:51.990
  74. 6 0:31:47.989 0:11:53.629 38 678 kbps 54 735 kbps 00:43:39.366 42 294 kbps 00:43:35.362 40 861 kbps 00:43:30.357 201 649 bytes 640 869 bytes 00:40:54.952
  75. 7 0:43:41.618 0:01:27.378 38 850 kbps 43 078 kbps 00:44:51.939 40 289 kbps 00:44:49.853 39 967 kbps 00:44:48.977 202 545 bytes 640 834 bytes 00:44:56.860
  76. 8 0:45:08.997 0:04:08.957 37 913 kbps 58 846 kbps 00:49:09.279 40 991 kbps 00:48:56.600 40 031 kbps 00:46:23.363 197 662 bytes 639 565 bytes 00:47:33.475
  77. 9 0:49:17.955 0:00:02.002 1 968 kbps 2 007 kbps 00:49:18.830 0 kbps 00:00:00.000 0 kbps 00:00:00.000 10 476 bytes 208 308 bytes 00:49:19.915
  78.  
  79. STREAM DIAGNOSTICS:
  80.  
  81. File PID Type Codec Language Seconds Bitrate Bytes Packets
  82. ---- --- ---- ----- -------- -------------- -------------- ------------- -----
  83. 00000.M2TS 4113 (0x1011) 0x1B AVC 2959,790 38 141 14 111 129 494 76 732 553
  84. 00000.M2TS 4352 (0x1100) 0x80 LPCM jpn (Japanese) 2959,790 2 334 863 520 664 4 784 048
  85.  
  86. [/code]
  87. <---- END FORUMS PASTE ---->
  88.  
  89. QUICK SUMMARY:
  90.  
  91. Disc Title: BDROM
  92. Disc Size: 17 639 814 399 bytes
  93. Protection: AACS
  94. BD-Java: No
  95. Playlist: 00000.MPLS
  96. Size: 15 670 419 456 bytes
  97. Length: 0:49:19
  98. Total Bitrate: 42,35 Mbps
  99. Video: MPEG-4 AVC Video / 38139 kbps / 1080p / 23,976 fps / 16:9 / High Profile 4.1
  100. Audio: Japanese / LPCM Audio / 2.0 / 48 kHz / 2304 kbps / 24-bit
  101.  
  102.  
  103. ********************
  104. PLAYLIST: 00001.MPLS
  105. ********************
  106.  
  107. <--- BEGIN FORUMS PASTE --->
  108. [code]
  109. Total Video
  110. Title Codec Length Movie Size Disc Size Bitrate Bitrate Main Audio Track Secondary Audio Track
  111. ----- ------ ------- -------------- -------------- ------- ------- ------------------ ---------------------
  112. 00001.MPLS AVC 0:02:31 757 082 112 17 639 814 399 40,07 35,98 LPCM 2.0 2304Kbps (48kHz/24-bit)
  113. [/code]
  114.  
  115. [code]
  116.  
  117. DISC INFO:
  118.  
  119. Disc Title: BDROM
  120. Disc Size: 17 639 814 399 bytes
  121. Protection: AACS
  122. BD-Java: No
  123. BDInfo: 0.5.6
  124.  
  125. PLAYLIST REPORT:
  126.  
  127. Name: 00001.MPLS
  128. Length: 0:02:31 (h:m:s)
  129. Size: 757 082 112 bytes
  130. Total Bitrate: 40,07 Mbps
  131.  
  132. VIDEO:
  133.  
  134. Codec Bitrate Description
  135. ----- ------- -----------
  136. MPEG-4 AVC Video 35976 kbps 1080p / 23,976 fps / 16:9 / High Profile 4.1
  137.  
  138. AUDIO:
  139.  
  140. Codec Language Bitrate Description
  141. ----- -------- ------- -----------
  142. LPCM Audio Japanese 2304 kbps 2.0 / 48 kHz / 2304 kbps / 24-bit
  143.  
  144. FILES:
  145.  
  146. Name Time In Length Size Total Bitrate
  147. ---- ------- ------ ---- -------------
  148. 00007.M2TS 0:00:00.000 0:02:31.150 757 082 112 40 070
  149.  
  150. CHAPTERS:
  151.  
  152. Number Time In Length Avg Video Rate Max 1-Sec Rate Max 1-Sec Time Max 5-Sec Rate Max 5-Sec Time Max 10Sec Rate Max 10Sec Time Avg Frame Size Max Frame Size Max Frame Time
  153. ------ ------- ------ -------------- -------------- -------------- -------------- -------------- -------------- -------------- -------------- -------------- --------------
  154. 1 0:00:00.000 0:02:29.149 36 432 kbps 43 642 kbps 00:02:04.040 40 279 kbps 00:00:48.006 40 013 kbps 00:00:48.006 189 885 bytes 640 625 bytes 00:01:14.407
  155. 2 0:02:29.149 0:00:02.001 1 996 kbps 1 999 kbps 00:02:30.108 0 kbps 00:00:00.000 0 kbps 00:00:00.000 10 627 bytes 208 308 bytes 00:02:31.109
  156.  
  157. STREAM DIAGNOSTICS:
  158.  
  159. File PID Type Codec Language Seconds Bitrate Bytes Packets
  160. ---- --- ---- ----- -------- -------------- -------------- ------------- -----
  161. 00007.M2TS 4113 (0x1011) 0x1B AVC 150,984 36 015 679 717 676 3 696 221
  162. 00007.M2TS 4352 (0x1100) 0x80 LPCM jpn (Japanese) 150,984 2 313 43 652 120 241 840
  163.  
  164. [/code]
  165. <---- END FORUMS PASTE ---->
  166.  
  167. QUICK SUMMARY:
  168.  
  169. Disc Title: BDROM
  170. Disc Size: 17 639 814 399 bytes
  171. Protection: AACS
  172. BD-Java: No
  173. Playlist: 00001.MPLS
  174. Size: 757 082 112 bytes
  175. Length: 0:02:31
  176. Total Bitrate: 40,07 Mbps
  177. Video: MPEG-4 AVC Video / 35976 kbps / 1080p / 23,976 fps / 16:9 / High Profile 4.1
  178. Audio: Japanese / LPCM Audio / 2.0 / 48 kHz / 2304 kbps / 24-bit
  179.  
  180.  
  181. ********************
  182. PLAYLIST: 00002.MPLS
  183. ********************
  184.  
  185. <--- BEGIN FORUMS PASTE --->
  186. [code]
  187. Total Video
  188. Title Codec Length Movie Size Disc Size Bitrate Bitrate Main Audio Track Secondary Audio Track
  189. ----- ------ ------- -------------- -------------- ------- ------- ------------------ ---------------------
  190. 00002.MPLS AVC 0:00:38 66 680 832 17 639 814 399 14,02 11,60 LPCM 2.0 1536Kbps (48kHz/16-bit)
  191. [/code]
  192.  
  193. [code]
  194.  
  195. DISC INFO:
  196.  
  197. Disc Title: BDROM
  198. Disc Size: 17 639 814 399 bytes
  199. Protection: AACS
  200. BD-Java: No
  201. BDInfo: 0.5.6
  202.  
  203. PLAYLIST REPORT:
  204.  
  205. Name: 00002.MPLS
  206. Length: 0:00:38 (h:m:s)
  207. Size: 66 680 832 bytes
  208. Total Bitrate: 14,02 Mbps
  209.  
  210. VIDEO:
  211.  
  212. Codec Bitrate Description
  213. ----- ------- -----------
  214. MPEG-4 AVC Video 11601 kbps 1080i / 29,970 fps / 16:9 / High Profile 4.1
  215.  
  216. AUDIO:
  217.  
  218. Codec Language Bitrate Description
  219. ----- -------- ------- -----------
  220. LPCM Audio Japanese 1536 kbps 2.0 / 48 kHz / 1536 kbps / 16-bit
  221.  
  222. FILES:
  223.  
  224. Name Time In Length Size Total Bitrate
  225. ---- ------- ------ ---- -------------
  226. 00003.M2TS 0:00:00.000 0:00:22.021 23 218 176 8 435
  227. 00002.M2TS 0:00:22.021 0:00:16.015 43 462 656 21 710
  228.  
  229. CHAPTERS:
  230.  
  231. Number Time In Length Avg Video Rate Max 1-Sec Rate Max 1-Sec Time Max 5-Sec Rate Max 5-Sec Time Max 10Sec Rate Max 10Sec Time Avg Frame Size Max Frame Size Max Frame Time
  232. ------ ------- ------ -------------- -------------- -------------- -------------- -------------- -------------- -------------- -------------- -------------- --------------
  233. 1 0:00:00.000 0:00:38.037 11 601 kbps 46 121 kbps 00:00:31.564 32 526 kbps 00:00:28.495 27 952 kbps 00:00:23.523 48 385 bytes 489 494 bytes 00:00:03.002
  234.  
  235. STREAM DIAGNOSTICS:
  236.  
  237. File PID Type Codec Language Seconds Bitrate Bytes Packets
  238. ---- --- ---- ----- -------- -------------- -------------- ------------- -----
  239. 00003.M2TS 4113 (0x1011) 0x1B AVC 21,889 6 281 17 184 086 93 744
  240. 00003.M2TS 4352 (0x1100) 0x80 LPCM jpn (Japanese) 21,889 1 552 4 246 420 26 430
  241. 00002.M2TS 4113 (0x1011) 0x1B AVC 15,883 19 128 37 974 761 206 633
  242. 00002.M2TS 4352 (0x1100) 0x80 LPCM jpn (Japanese) 15,883 1 555 3 087 692 19 218
  243.  
  244. [/code]
  245. <---- END FORUMS PASTE ---->
  246.  
  247. QUICK SUMMARY:
  248.  
  249. Disc Title: BDROM
  250. Disc Size: 17 639 814 399 bytes
  251. Protection: AACS
  252. BD-Java: No
  253. Playlist: 00002.MPLS
  254. Size: 66 680 832 bytes
  255. Length: 0:00:38
  256. Total Bitrate: 14,02 Mbps
  257. Video: MPEG-4 AVC Video / 11601 kbps / 1080i / 29,970 fps / 16:9 / High Profile 4.1
  258. Audio: Japanese / LPCM Audio / 2.0 / 48 kHz / 1536 kbps / 16-bit
  259.  
RAW Paste Data