Guest User

DragonHeart.1996.BluRay.1080p.DTS-HD.MA.5.1.VC-1.REMUX-FraMeSToR

a guest
Jun 11th, 2019
31
Never
Not a member of Pastebin yet? Sign Up, it unlocks many cool features!
  1. General
  2. Complete name                            : DragonHeart.1996.BluRay.1080p.DTS-HD.MA.5.1.VC-1.REMUX-FraMeSToR.mkv
  3. Format                                   : Matroska
  4. Format version                           : Version 4
  5. File size                                : 24.1 GiB
  6. Duration                                 : 1 h 42 min
  7. Overall bit rate mode                    : Variable
  8. Overall bit rate                         : 33.6 Mb/s
  9. Encoded date                             : UTC 2017-06-10 20:01:12
  10. Writing application                      : mkvmerge v12.0.0 ('Trust / Lust') 64bit
  11. Writing library                          : libebml v1.3.4 + libmatroska v1.4.5
  12.  
  13. Video
  14. ID                                       : 1
  15. Format                                   : VC-1
  16. Format profile                           : Advanced@L3
  17. Codec ID                                 : V_MS/VFW/FOURCC / WVC1
  18. Codec ID/Hint                            : Microsoft
  19. Duration                                 : 1 h 42 min
  20. Bit rate                                 : 28.6 Mb/s
  21. Width                                    : 1 920 pixels
  22. Height                                   : 1 080 pixels
  23. Display aspect ratio                     : 16:9
  24. Frame rate mode                          : Constant
  25. Frame rate                               : 23.976 (24000/1001) FPS
  26. Color space                              : YUV
  27. Chroma subsampling                       : 4:2:0
  28. Bit depth                                : 8 bits
  29. Scan type                                : Progressive
  30. Compression mode                         : Lossy
  31. Bits/(Pixel*Frame)                       : 0.576
  32. Stream size                              : 20.6 GiB (85%)
  33. Default                                  : Yes
  34. Forced                                   : No
  35.  
  36. Audio
  37. ID                                       : 2
  38. Format                                   : DTS XLL
  39. Format/Info                              : Digital Theater Systems
  40. Commercial name                          : DTS-HD Master Audio
  41. Codec ID                                 : A_DTS
  42. Duration                                 : 1 h 42 min
  43. Bit rate mode                            : Variable
  44. Bit rate                                 : 4 499 kb/s
  45. Channel(s)                               : 6 channels
  46. Channel layout                           : C L R Ls Rs LFE
  47. Sampling rate                            : 48.0 kHz
  48. Frame rate                               : 93.750 FPS (512 SPF)
  49. Bit depth                                : 24 bits
  50. Compression mode                         : Lossless
  51. Stream size                              : 3.23 GiB (13%)
  52. Title                                    : DTS-HD MA 5.1
  53. Language                                 : English
  54. Default                                  : Yes
  55. Forced                                   : No
  56.  
  57. Text #1
  58. ID                                       : 3
  59. Format                                   : PGS
  60. Codec ID                                 : S_HDMV/PGS
  61. Codec ID/Info                            : Picture based subtitle format used on BDs/HD-DVDs
  62. Duration                                 : 1 h 35 min
  63. Bit rate                                 : 28.3 kb/s
  64. Count of elements                        : 2212
  65. Stream size                              : 19.4 MiB (0%)
  66. Title                                    : English (SDH)
  67. Language                                 : English
  68. Default                                  : Yes
  69. Forced                                   : No
  70.  
  71. Text #2
  72. ID                                       : 4
  73. Format                                   : PGS
  74. Codec ID                                 : S_HDMV/PGS
  75. Codec ID/Info                            : Picture based subtitle format used on BDs/HD-DVDs
  76. Duration                                 : 1 h 35 min
  77. Bit rate                                 : 26.9 kb/s
  78. Count of elements                        : 1822
  79. Stream size                              : 18.4 MiB (0%)
  80. Title                                    : French
  81. Language                                 : French
  82. Default                                  : No
  83. Forced                                   : No
  84.  
  85. Text #3
  86. ID                                       : 5
  87. Format                                   : PGS
  88. Codec ID                                 : S_HDMV/PGS
  89. Codec ID/Info                            : Picture based subtitle format used on BDs/HD-DVDs
  90. Duration                                 : 1 h 35 min
  91. Bit rate                                 : 24.8 kb/s
  92. Count of elements                        : 1800
  93. Stream size                              : 17.0 MiB (0%)
  94. Title                                    : Italian
  95. Language                                 : Italian
  96. Default                                  : No
  97. Forced                                   : No
  98.  
  99. Text #4
  100. ID                                       : 6
  101. Format                                   : PGS
  102. Codec ID                                 : S_HDMV/PGS
  103. Codec ID/Info                            : Picture based subtitle format used on BDs/HD-DVDs
  104. Duration                                 : 1 h 35 min
  105. Bit rate                                 : 29.6 kb/s
  106. Count of elements                        : 1820
  107. Stream size                              : 20.3 MiB (0%)
  108. Title                                    : German
  109. Language                                 : German
  110. Default                                  : No
  111. Forced                                   : No
  112.  
  113. Text #5
  114. ID                                       : 7
  115. Format                                   : PGS
  116. Codec ID                                 : S_HDMV/PGS
  117. Codec ID/Info                            : Picture based subtitle format used on BDs/HD-DVDs
  118. Duration                                 : 1 h 35 min
  119. Bit rate                                 : 25.6 kb/s
  120. Count of elements                        : 1820
  121. Stream size                              : 17.6 MiB (0%)
  122. Title                                    : Spanish (Castilian)
  123. Language                                 : Spanish
  124. Default                                  : No
  125. Forced                                   : No
  126.  
  127. Text #6
  128. ID                                       : 8
  129. Format                                   : PGS
  130. Codec ID                                 : S_HDMV/PGS
  131. Codec ID/Info                            : Picture based subtitle format used on BDs/HD-DVDs
  132. Duration                                 : 1 h 35 min
  133. Bit rate                                 : 20.7 kb/s
  134. Count of elements                        : 1702
  135. Stream size                              : 14.2 MiB (0%)
  136. Title                                    : Portuguese (Brazilian)
  137. Language                                 : Portuguese
  138. Default                                  : No
  139. Forced                                   : No
  140.  
  141. Text #7
  142. ID                                       : 9
  143. Format                                   : PGS
  144. Codec ID                                 : S_HDMV/PGS
  145. Codec ID/Info                            : Picture based subtitle format used on BDs/HD-DVDs
  146. Duration                                 : 1 h 35 min
  147. Bit rate                                 : 22.2 kb/s
  148. Count of elements                        : 1726
  149. Stream size                              : 15.2 MiB (0%)
  150. Title                                    : Spanish (Latin American)
  151. Language                                 : Spanish
  152. Default                                  : No
  153. Forced                                   : No
  154.  
  155. Text #8
  156. ID                                       : 10
  157. Format                                   : PGS
  158. Codec ID                                 : S_HDMV/PGS
  159. Codec ID/Info                            : Picture based subtitle format used on BDs/HD-DVDs
  160. Duration                                 : 1 h 35 min
  161. Bit rate                                 : 25.8 kb/s
  162. Count of elements                        : 1820
  163. Stream size                              : 17.7 MiB (0%)
  164. Title                                    : Danish
  165. Language                                 : Danish
  166. Default                                  : No
  167. Forced                                   : No
  168.  
  169. Text #9
  170. ID                                       : 11
  171. Format                                   : PGS
  172. Codec ID                                 : S_HDMV/PGS
  173. Codec ID/Info                            : Picture based subtitle format used on BDs/HD-DVDs
  174. Duration                                 : 1 h 35 min
  175. Bit rate                                 : 26.0 kb/s
  176. Count of elements                        : 1820
  177. Stream size                              : 17.8 MiB (0%)
  178. Title                                    : Dutch
  179. Language                                 : Dutch
  180. Default                                  : No
  181. Forced                                   : No
  182.  
  183. Text #10
  184. ID                                       : 12
  185. Format                                   : PGS
  186. Codec ID                                 : S_HDMV/PGS
  187. Codec ID/Info                            : Picture based subtitle format used on BDs/HD-DVDs
  188. Duration                                 : 1 h 35 min
  189. Bit rate                                 : 24.6 kb/s
  190. Count of elements                        : 1724
  191. Stream size                              : 16.8 MiB (0%)
  192. Title                                    : Finnish
  193. Language                                 : Finnish
  194. Default                                  : No
  195. Forced                                   : No
  196.  
  197. Text #11
  198. ID                                       : 13
  199. Format                                   : PGS
  200. Codec ID                                 : S_HDMV/PGS
  201. Codec ID/Info                            : Picture based subtitle format used on BDs/HD-DVDs
  202. Duration                                 : 1 h 35 min
  203. Bit rate                                 : 28.7 kb/s
  204. Count of elements                        : 1820
  205. Stream size                              : 19.7 MiB (0%)
  206. Title                                    : Greek
  207. Language                                 : Greek
  208. Default                                  : No
  209. Forced                                   : No
  210.  
  211. Text #12
  212. ID                                       : 14
  213. Format                                   : PGS
  214. Codec ID                                 : S_HDMV/PGS
  215. Codec ID/Info                            : Picture based subtitle format used on BDs/HD-DVDs
  216. Duration                                 : 1 h 36 min
  217. Bit rate                                 : 19.4 kb/s
  218. Count of elements                        : 1820
  219. Stream size                              : 13.4 MiB (0%)
  220. Title                                    : Korean
  221. Language                                 : Korean
  222. Default                                  : No
  223. Forced                                   : No
  224.  
  225. Text #13
  226. ID                                       : 15
  227. Format                                   : PGS
  228. Codec ID                                 : S_HDMV/PGS
  229. Codec ID/Info                            : Picture based subtitle format used on BDs/HD-DVDs
  230. Duration                                 : 1 h 35 min
  231. Bit rate                                 : 24.0 kb/s
  232. Count of elements                        : 1820
  233. Stream size                              : 16.5 MiB (0%)
  234. Title                                    : Norwegian
  235. Language                                 : Norwegian
  236. Default                                  : No
  237. Forced                                   : No
  238.  
  239. Text #14
  240. ID                                       : 16
  241. Format                                   : PGS
  242. Codec ID                                 : S_HDMV/PGS
  243. Codec ID/Info                            : Picture based subtitle format used on BDs/HD-DVDs
  244. Duration                                 : 1 h 35 min
  245. Bit rate                                 : 24.7 kb/s
  246. Count of elements                        : 1820
  247. Stream size                              : 16.9 MiB (0%)
  248. Title                                    : Polish
  249. Language                                 : Polish
  250. Default                                  : No
  251. Forced                                   : No
  252.  
  253. Text #15
  254. ID                                       : 17
  255. Format                                   : PGS
  256. Codec ID                                 : S_HDMV/PGS
  257. Codec ID/Info                            : Picture based subtitle format used on BDs/HD-DVDs
  258. Duration                                 : 1 h 36 min
  259. Bit rate                                 : 22.4 kb/s
  260. Count of elements                        : 1822
  261. Stream size                              : 15.4 MiB (0%)
  262. Title                                    : Portuguese (Iberian)
  263. Language                                 : Portuguese
  264. Default                                  : No
  265. Forced                                   : No
  266.  
  267. Text #16
  268. ID                                       : 18
  269. Format                                   : PGS
  270. Codec ID                                 : S_HDMV/PGS
  271. Codec ID/Info                            : Picture based subtitle format used on BDs/HD-DVDs
  272. Duration                                 : 1 h 35 min
  273. Bit rate                                 : 24.3 kb/s
  274. Count of elements                        : 1738
  275. Stream size                              : 16.6 MiB (0%)
  276. Title                                    : Swedish
  277. Language                                 : Swedish
  278. Default                                  : No
  279. Forced                                   : No
  280.  
  281. Text #17
  282. ID                                       : 19
  283. Format                                   : PGS
  284. Codec ID                                 : S_HDMV/PGS
  285. Codec ID/Info                            : Picture based subtitle format used on BDs/HD-DVDs
  286. Duration                                 : 1 h 35 min
  287. Bit rate                                 : 14.6 kb/s
  288. Count of elements                        : 1690
  289. Stream size                              : 9.99 MiB (0%)
  290. Title                                    : Thai
  291. Language                                 : Thai
  292. Default                                  : No
  293. Forced                                   : No
  294.  
  295. Text #18
  296. ID                                       : 20
  297. Format                                   : PGS
  298. Codec ID                                 : S_HDMV/PGS
  299. Codec ID/Info                            : Picture based subtitle format used on BDs/HD-DVDs
  300. Duration                                 : 1 h 35 min
  301. Bit rate                                 : 25.7 kb/s
  302. Count of elements                        : 1820
  303. Stream size                              : 17.6 MiB (0%)
  304. Title                                    : Turkish
  305. Language                                 : Turkish
  306. Default                                  : No
  307. Forced                                   : No
  308.  
  309. Text #19
  310. ID                                       : 21
  311. Format                                   : PGS
  312. Codec ID                                 : S_HDMV/PGS
  313. Codec ID/Info                            : Picture based subtitle format used on BDs/HD-DVDs
  314. Duration                                 : 1 h 35 min
  315. Bit rate                                 : 21.0 kb/s
  316. Count of elements                        : 1820
  317. Stream size                              : 14.4 MiB (0%)
  318. Title                                    : Chinese (Mandarin Traditional)
  319. Language                                 : Chinese
  320. Default                                  : No
  321. Forced                                   : No
  322.  
  323. Text #20
  324. ID                                       : 22
  325. Format                                   : PGS
  326. Codec ID                                 : S_HDMV/PGS
  327. Codec ID/Info                            : Picture based subtitle format used on BDs/HD-DVDs
  328. Duration                                 : 1 h 35 min
  329. Bit rate                                 : 17.4 kb/s
  330. Count of elements                        : 1700
  331. Stream size                              : 11.9 MiB (0%)
  332. Title                                    : Japanese
  333. Language                                 : Japanese
  334. Default                                  : No
  335. Forced                                   : No
  336.  
  337. Menu
  338. 00:00:00.000                             : en:Slain King (Main Titles)
  339. 00:07:59.020                             : en:Resurrected
  340. 00:14:37.752                             : en:Above the Code
  341. 00:17:27.630                             : en:Dragon Hunting
  342. 00:21:16.025                             : en:King's Sport
  343. 00:24:55.327                             : en:Into the Mouth of Death
  344. 00:30:03.427                             : en:The Last One
  345. 00:38:06.993                             : en:Avenging Father's Fate
  346. 00:43:37.156                             : en:A Special Heart
  347. 00:50:09.298                             : en:The King's Lesson
  348. 00:58:23.834                             : en:In League with the Dragon
  349. 01:04:53.473                             : en:Sworn to Valor
  350. 01:10:05.827                             : en:A Knight's Army
  351. 01:15:02.707                             : en:Peasant's Revolt
  352. 01:20:44.465                             : en:Save The Dragon
  353. 01:25:42.804                             : en:Death to the King
  354. 01:30:34.012                             : en:To the Stars
  355. 01:36:55.560                             : en:End Titles
RAW Paste Data