Guest User

Untitled

a guest
Oct 13th, 2021
59
Never
Not a member of Pastebin yet? Sign Up, it unlocks many cool features!
  1. General
  2. Unique ID : 337366084204370793513662412520775657948 (0xFDCE582938A3BF474A9FC1D3329EA9DC)
  3. Complete name : E:\Video\Old.2021.WEB-DL.2160p.HDR.seleZen.mkv
  4. Format : Matroska
  5. Format version : Version 4
  6. File size : 11.8 GiB
  7. Duration : 1 h 48 min
  8. Overall bit rate : 15.5 Mb/s
  9. Movie name : Old 2021 from seleZen
  10. Encoded date : UTC 2021-10-13 14:43:45
  11. Writing application : mkvmerge v59.0.0 ('Shining Star') 64-bit
  12. Writing library : libebml v1.4.2 + libmatroska v1.6.4
  13.  
  14. Video
  15. ID : 1
  16. Format : HEVC
  17. Format/Info : High Efficiency Video Coding
  18. Format profile : Main 10@L5@High
  19. HDR format : SMPTE ST 2086, HDR10 compatible
  20. Codec ID : V_MPEGH/ISO/HEVC
  21. Duration : 1 h 48 min
  22. Bit rate : 14.5 Mb/s
  23. Width : 3 840 pixels
  24. Height : 1 606 pixels
  25. Display aspect ratio : 2.40:1
  26. Frame rate mode : Constant
  27. Frame rate : 23.976 FPS
  28. Color space : YUV
  29. Chroma subsampling : 4:2:0 (Type 2)
  30. Bit depth : 10 bits
  31. Bits/(Pixel*Frame) : 0.098
  32. Stream size : 11.0 GiB (93%)
  33. Language : English
  34. Default : Yes
  35. Forced : No
  36. Color range : Limited
  37. Color primaries : BT.2020
  38. Transfer characteristics : PQ
  39. Matrix coefficients : BT.2020 non-constant
  40. Mastering display color primaries : BT.2020
  41. Mastering display luminance : min: 0.0050 cd/m2, max: 1000 cd/m2
  42. Maximum Content Light Level : 430 cd/m2
  43. Maximum Frame-Average Light Level : 108 cd/m2
  44.  
  45. Audio #1
  46. ID : 2
  47. Format : AC-3
  48. Format/Info : Audio Coding 3
  49. Commercial name : Dolby Digital
  50. Codec ID : A_AC3
  51. Duration : 1 h 48 min
  52. Bit rate mode : Constant
  53. Bit rate : 384 kb/s
  54. Channel(s) : 6 channels
  55. Channel layout : L R C LFE Ls Rs
  56. Sampling rate : 48.0 kHz
  57. Frame rate : 31.250 FPS (1536 SPF)
  58. Compression mode : Lossy
  59. Stream size : 298 MiB (2%)
  60. Title : iTunes
  61. Language : Russian
  62. Service kind : Complete Main
  63. Default : Yes
  64. Forced : Yes
  65.  
  66. Audio #2
  67. ID : 3
  68. Format : AC-3
  69. Format/Info : Audio Coding 3
  70. Commercial name : Dolby Digital
  71. Codec ID : A_AC3
  72. Duration : 1 h 48 min
  73. Bit rate mode : Constant
  74. Bit rate : 640 kb/s
  75. Channel(s) : 6 channels
  76. Channel layout : L R C LFE Ls Rs
  77. Sampling rate : 48.0 kHz
  78. Frame rate : 31.250 FPS (1536 SPF)
  79. Compression mode : Lossy
  80. Stream size : 496 MiB (4%)
  81. Title : Original
  82. Language : English
  83. Service kind : Complete Main
  84. Default : No
  85. Forced : No
  86.  
  87. Text #1
  88. ID : 4
  89. Format : UTF-8
  90. Codec ID : S_TEXT/UTF8
  91. Codec ID/Info : UTF-8 Plain Text
  92. Duration : 1 h 42 min
  93. Bit rate : 0 b/s
  94. Count of elements : 4
  95. Stream size : 93.0 Bytes (0%)
  96. Title : Forced
  97. Language : Russian
  98. Default : Yes
  99. Forced : Yes
  100.  
  101. Text #2
  102. ID : 5
  103. Format : UTF-8
  104. Codec ID : S_TEXT/UTF8
  105. Codec ID/Info : UTF-8 Plain Text
  106. Duration : 1 h 42 min
  107. Bit rate : 81 b/s
  108. Count of elements : 1290
  109. Stream size : 60.8 KiB (0%)
  110. Title : Full
  111. Language : Russian
  112. Default : No
  113. Forced : No
  114.  
  115. Text #3
  116. ID : 6
  117. Format : UTF-8
  118. Codec ID : S_TEXT/UTF8
  119. Codec ID/Info : UTF-8 Plain Text
  120. Duration : 1 h 39 min
  121. Bit rate : 52 b/s
  122. Count of elements : 1201
  123. Stream size : 38.3 KiB (0%)
  124. Title : Full
  125. Language : English
  126. Default : No
  127. Forced : No
  128.  
  129. Text #4
  130. ID : 7
  131. Format : UTF-8
  132. Codec ID : S_TEXT/UTF8
  133. Codec ID/Info : UTF-8 Plain Text
  134. Duration : 1 h 43 min
  135. Bit rate : 58 b/s
  136. Count of elements : 1415
  137. Stream size : 44.7 KiB (0%)
  138. Title : SDH
  139. Language : English
  140. Default : No
  141. Forced : No
  142.  
  143. Menu
  144. 00:00:00.000 : Chapter 01
  145. 00:05:50.100 : Chapter 02
  146. 00:13:46.617 : Chapter 03
  147. 00:18:35.448 : Chapter 04
  148. 00:23:05.676 : Chapter 05
  149. 00:28:33.045 : Chapter 06
  150. 00:32:43.420 : Chapter 07
  151. 00:38:01.654 : Chapter 08
  152. 00:43:25.895 : Chapter 09
  153. 00:47:54.371 : Chapter 10
  154. 00:53:05.808 : Chapter 11
  155. 01:01:32.939 : Chapter 12
  156. 01:05:11.366 : Chapter 13
  157. 01:08:52.337 : Chapter 14
  158. 01:12:44.068 : Chapter 15
  159. 01:18:59.568 : Chapter 16
  160. 01:23:29.796 : Chapter 17
  161. 01:29:13.223 : Chapter 18
  162. 01:34:26.619 : Chapter 19
  163. 01:41:18.281 : Chapter 20
  164.  
  165.  
RAW Paste Data