iMN0

The.Assassination.Of.Jesse.James.By.The.Coward.Robert.Ford.2007.BluRay.1080p.AC3.VC1.Remux-HiFi.mkv

Jul 7th, 2021
134
Never
Not a member of Pastebin yet? Sign Up, it unlocks many cool features!
  1. General
  2. Unique ID : 256203614944211237325284253486273107859 (0xC0BF0579B14CAFC5F3A05A837A8D9793)
  3. Complete name : The.Assassination.Of.Jesse.James.By.The.Coward.Robert.Ford.2007.BluRay.1080p.AC3.VC1.Remux-HiFi.mkv
  4. Format : Matroska
  5. Format version : Version 2
  6. File size : 18.2 GiB
  7. Duration : 2 h 39 min
  8. Overall bit rate : 16.3 Mb/s
  9. Encoded date : UTC 2011-01-30 03:11:20
  10. Writing application : mkvmerge v4.4.0 ('Die Wiederkehr') built on Oct 31 2010 18:08:13
  11. Writing library : libebml v1.0.0 + libmatroska v1.0.0
  12.  
  13. Video
  14. ID : 1
  15. Format : VC-1
  16. Format profile : Advanced@L3
  17. Codec ID : V_MS/VFW/FOURCC / WVC1
  18. Codec ID/Hint : Microsoft
  19. Duration : 2 h 39 min
  20. Bit rate : 15.4 Mb/s
  21. Width : 1 920 pixels
  22. Height : 1 080 pixels
  23. Display aspect ratio : 16:9
  24. Frame rate mode : Constant
  25. Frame rate : 23.976 (24000/1001) FPS
  26. Color space : YUV
  27. Chroma subsampling : 4:2:0
  28. Bit depth : 8 bits
  29. Scan type : Progressive
  30. Compression mode : Lossy
  31. Bits/(Pixel*Frame) : 0.309
  32. Stream size : 17.1 GiB (94%)
  33. Title : The Assassination of Jesse James by the Coward Robert Ford (2007) - 1080p @ 15688 kbps
  34. Language : English
  35. Default : Yes
  36. Forced : No
  37.  
  38. Audio
  39. ID : 2
  40. Format : AC-3
  41. Format/Info : Audio Coding 3
  42. Commercial name : Dolby Digital
  43. Codec ID : A_AC3
  44. Duration : 2 h 39 min
  45. Bit rate mode : Constant
  46. Bit rate : 640 kb/s
  47. Channel(s) : 6 channels
  48. Channel layout : L R C LFE Ls Rs
  49. Sampling rate : 48.0 kHz
  50. Frame rate : 31.250 FPS (1536 SPF)
  51. Compression mode : Lossy
  52. Stream size : 731 MiB (4%)
  53. Title : AC3 / 640 kbps / 48 KHz / 16-Bit / 5.1
  54. Language : English
  55. Service kind : Complete Main
  56. Default : Yes
  57. Forced : No
  58.  
  59. Text
  60. ID : 3
  61. Format : VobSub
  62. Muxing mode : zlib
  63. Codec ID : S_VOBSUB
  64. Codec ID/Info : Picture based subtitle format used on DVDs
  65. Language : English
  66. Default : No
  67. Forced : No
  68.  
  69. Menu
  70. 00:00:00.000 : en:Prologue Portrait
  71. 00:03:26.373 : en:Appetite for Greater Things
  72. 00:09:39.412 : en:Call Me Gregarious
  73. 00:12:54.273 : en:Petty Thieves and Rubes
  74. 00:16:50.676 : en:Blue Cut Robbery
  75. 00:21:56.482 : en:No More Shenanigans
  76. 00:25:57.222 : en:Cigars and Lies
  77. 00:28:26.705 : en:Names of Enemies
  78. 00:33:44.356 : en:Sent Home
  79. 00:36:59.050 : en:Threats and Mysteries
  80. 00:42:57.575 : en:My Daddy's Wife
  81. 00:48:59.937 : en:Jesse Stops By
  82. 00:55:33.330 : en:Where's Jim?
  83. 01:02:55.772 : en:Shootin' Scrape
  84. 01:08:46.956 : en:Snow Grave
  85. 01:11:10.266 : en:Overlapping Stories
  86. 01:17:33.315 : en:Acting Testy
  87. 01:21:29.885 : en:Catch-Up with Miller
  88. 01:27:07.556 : en:No Peace When He's Around
  89. 01:30:03.398 : en:Craig Rifles Ball
  90. 01:34:19.153 : en:Cup of Iniquity
  91. 01:36:41.462 : en:Other Side of the Ice
  92. 01:40:16.177 : en:You've Been Chosen
  93. 01:44:59.460 : en:Just a Human Being
  94. 01:48:29.336 : en:Creep Up From Behind
  95. 01:53:25.632 : en:By Way of Apology
  96. 01:59:24.491 : en:Imagining Himself
  97. 02:02:53.366 : en:April 3rd, 1882
  98. 02:06:29.916 : en:News Report
  99. 02:09:18.250 : en:Assassination
  100. 02:15:01.760 : en:Final Shots
  101. 02:17:02.214 : en:Stage Portrayal
  102. 02:21:05.957 : en:Charlie's Final Curtain
  103. 02:22:30.041 : en:I'm Robert Ford
  104. 02:26:15.433 : en:No Applause
  105. 02:30:05.663 : en:No Eulogies
  106. 02:32:21.132 : en:End Credits
RAW Paste Data