SHARE
TWEET

Untitled

a guest Jan 28th, 2020 92 Never
Not a member of Pastebin yet? Sign Up, it unlocks many cool features!
  1. x264 [info]: frame I:1725 Avg QP:14.37 size:244951
  2. x264 [info]: frame P:49819 Avg QP:17.33 size: 76683
  3. x264 [info]: frame B:145113 Avg QP:18.81 size: 30814
  4. x264 [info]: consecutive B-frames: 4.5% 5.0% 15.7% 15.6% 14.1% 39.1% 4.2% 0.8% 0.5% 0.3% 0.1% 0.1% 0.1%
  5.  
  6. Общее
  7. Уникальный идентификатор : 248040527264494359425784292235333558507 (0xBA9ADE2DE8EC67FA95062603BC8B60EB)
  8. Полное имя : Форсаж Хоббс и Шоу (Fast & Furious Presents Hobbs & Shaw) 2019 BDRip 1080p.mkv
  9. Формат : Matroska
  10. Версия формата : Version 2
  11. Размер файла : 10,4 Гбайт
  12. Продолжительность : 2 ч. 16 м.
  13. Общий поток : 10,9 Мбит/сек
  14. Дата кодирования : UTC 2020-01-25 22:54:19
  15. Программа кодирования : mkvmerge v4.0.0 ('The Stars were mine') сборка от Jun 6 2010 16:18:42
  16. Библиотека кодирования : libebml v1.0.0 + libmatroska v1.0.0
  17.  
  18. Видео
  19. Идентификатор : 1
  20. Формат : AVC
  21. Формат/Информация : Advanced Video Codec
  22. Профиль формата : High@L4.1
  23. Параметр CABAC формата : Да
  24. Параметр ReFrames формата : 5 кадров
  25. Идентификатор кодека : V_MPEG4/ISO/AVC
  26. Продолжительность : 2 ч. 16 м.
  27. Битрейт : 8500 Кбит/сек
  28. Ширина : 1920 пикселей
  29. Высота : 804 пикселя
  30. Соотношение сторон : 2,40:1
  31. Режим частоты кадров : Постоянный
  32. Частота кадров : 23,976 (24000/1001) кадра/сек
  33. Цветовое пространство : YUV
  34. Субдискретизация насыщенности : 4:2:0
  35. Битовая глубина : 8 бит
  36. Тип развёртки : Прогрессивная
  37. Бит/(Пиксели*Кадры) : 0.230
  38. Размер потока : 7,91 Гбайт (76%)
  39. Библиотека кодирования : x264 core 146 r2538 121396c
  40. Настройки программы : cabac=1 / ref=5 / deblock=1:-2:-2 / analyse=0x3:0x133 / me=umh / subme=11 / psy=1 / psy_rd=1.00:0.00 / mixed_ref=1 / me_range=32 / chroma_me=1 / trellis=2 / 8x8dct=1 / cqm=0 / deadzone=21,11 / fast_pskip=0 / chroma_qp_offset=-2 / threads=12 / lookahead_threads=2 / sliced_threads=0 / nr=0 / decimate=0 / interlaced=0 / bluray_compat=0 / constrained_intra=0 / bframes=12 / b_pyramid=2 / b_adapt=2 / b_bias=0 / direct=3 / weightb=1 / open_gop=0 / weightp=2 / keyint=240 / keyint_min=23 / scenecut=40 / intra_refresh=0 / rc=2pass / mbtree=0 / bitrate=8500 / ratetol=1.0 / qcomp=0.60 / qpmin=0 / qpmax=69 / qpstep=4 / cplxblur=20.0 / qblur=0.5 / ip_ratio=1.40 / pb_ratio=1.30 / aq=3:0.80
  41. Язык : English
  42. Default : Нет
  43. Forced : Нет
  44.  
  45. Аудио #1
  46. Идентификатор : 2
  47. Формат : AC-3
  48. Формат/Информация : Audio Coding 3
  49. Расширение режима : CM (complete main)
  50. Параметр Endianness формата : Big
  51. Идентификатор кодека : A_AC3
  52. Продолжительность : 2 ч. 16 м.
  53. Вид битрейта : Постоянный
  54. Битрейт : 640 Кбит/сек
  55. Каналы : 6 каналов
  56. Расположение каналов : Front: L C R, Side: L R, LFE
  57. Частота : 48,0 КГц
  58. Частота кадров : 31,250 кадров/сек (1536 spf)
  59. Метод сжатия : С потерями
  60. Размер потока : 626 Мбайт (6%)
  61. Заголовок : Dub Пифагор (онлайн-кинотеатр)
  62. Язык : Russian
  63. Default : Нет
  64. Forced : Нет
  65.  
  66. Аудио #2
  67. Идентификатор : 3
  68. Формат : AC-3
  69. Формат/Информация : Audio Coding 3
  70. Расширение режима : CM (complete main)
  71. Параметр Endianness формата : Big
  72. Идентификатор кодека : A_AC3
  73. Продолжительность : 2 ч. 16 м.
  74. Вид битрейта : Постоянный
  75. Битрейт : 640 Кбит/сек
  76. Каналы : 6 каналов
  77. Расположение каналов : Front: L C R, Side: L R, LFE
  78. Частота : 48,0 КГц
  79. Частота кадров : 31,250 кадров/сек (1536 spf)
  80. Метод сжатия : С потерями
  81. Размер потока : 626 Мбайт (6%)
  82. Заголовок : Dub Пифагор (BD 4K EUR)
  83. Язык : Russian
  84. Default : Нет
  85. Forced : Нет
  86.  
  87. Аудио #3
  88. Идентификатор : 4
  89. Формат : AC-3
  90. Формат/Информация : Audio Coding 3
  91. Расширение режима : CM (complete main)
  92. Параметр Endianness формата : Big
  93. Идентификатор кодека : A_AC3
  94. Продолжительность : 2 ч. 16 м.
  95. Вид битрейта : Постоянный
  96. Битрейт : 640 Кбит/сек
  97. Каналы : 6 каналов
  98. Расположение каналов : Front: L C R, Side: L R, LFE
  99. Частота : 48,0 КГц
  100. Частота кадров : 31,250 кадров/сек (1536 spf)
  101. Метод сжатия : С потерями
  102. Размер потока : 626 Мбайт (6%)
  103. Заголовок : AVO Есарев Дмитрий
  104. Язык : Russian
  105. Default : Нет
  106. Forced : Нет
  107.  
  108. Аудио #4
  109. Идентификатор : 5
  110. Формат : AC-3
  111. Формат/Информация : Audio Coding 3
  112. Расширение режима : CM (complete main)
  113. Параметр Endianness формата : Big
  114. Идентификатор кодека : A_AC3
  115. Продолжительность : 2 ч. 16 м.
  116. Вид битрейта : Постоянный
  117. Битрейт : 448 Кбит/сек
  118. Каналы : 6 каналов
  119. Расположение каналов : Front: L C R, Side: L R, LFE
  120. Частота : 48,0 КГц
  121. Частота кадров : 31,250 кадров/сек (1536 spf)
  122. Метод сжатия : С потерями
  123. Размер потока : 438 Мбайт (4%)
  124. Язык : English
  125. Default : Нет
  126. Forced : Нет
  127.  
  128. Текст #1
  129. Идентификатор : 6
  130. Формат : UTF-8
  131. Идентификатор кодека : S_TEXT/UTF8
  132. Идентификатор кодека/Информация : UTF-8 Plain Text
  133. Заголовок : Forced
  134. Язык : Russian
  135. Default : Нет
  136. Forced : Нет
  137.  
  138. Текст #2
  139. Идентификатор : 7
  140. Формат : UTF-8
  141. Идентификатор кодека : S_TEXT/UTF8
  142. Идентификатор кодека/Информация : UTF-8 Plain Text
  143. Язык : Russian
  144. Default : Нет
  145. Forced : Нет
  146.  
  147. Текст #3
  148. Идентификатор : 8
  149. Формат : UTF-8
  150. Идентификатор кодека : S_TEXT/UTF8
  151. Идентификатор кодека/Информация : UTF-8 Plain Text
  152. Язык : English
  153. Default : Нет
  154. Forced : Нет
  155.  
  156. Текст #4
  157. Идентификатор : 9
  158. Формат : UTF-8
  159. Идентификатор кодека : S_TEXT/UTF8
  160. Идентификатор кодека/Информация : UTF-8 Plain Text
  161. Заголовок : SDH
  162. Язык : English
  163. Default : Нет
  164. Forced : Нет
  165.  
  166. Меню
  167. 00:00:00.000 : en:00:00:00.000
  168. 00:04:58.131 : en:00:04:58.131
  169. 00:13:43.489 : en:00:13:43.489
  170. 00:19:21.452 : en:00:19:21.452
  171. 00:26:45.979 : en:00:26:45.979
  172. 00:35:41.514 : en:00:35:41.514
  173. 00:40:13.244 : en:00:40:13.244
  174. 00:46:22.029 : en:00:46:22.029
  175. 00:51:34.216 : en:00:51:34.216
  176. 00:57:51.802 : en:00:57:51.802
  177. 01:01:53.251 : en:01:01:53.251
  178. 01:08:45.163 : en:01:08:45.163
  179. 01:14:22.833 : en:01:14:22.833
  180. 01:19:48.075 : en:01:19:48.075
  181. 01:24:59.261 : en:01:24:59.261
  182. 01:32:58.198 : en:01:32:58.198
  183. 01:38:48.923 : en:01:38:48.923
  184. 01:46:32.970 : en:01:46:32.970
  185. 01:53:29.594 : en:01:53:29.594
  186. 02:01:14.809 : en:02:01:14.809
RAW Paste Data
We use cookies for various purposes including analytics. By continuing to use Pastebin, you agree to our use of cookies as described in the Cookies Policy. OK, I Understand
Top