SHARE
TWEET

Avengers.Infinity.War.2018.1080p.BluRay.REMUX.AVC.DTS-HD.MA.7.1-EPSiLON.mkv

iMN0 Aug 1st, 2018 1,404 Never
Not a member of Pastebin yet? Sign Up, it unlocks many cool features!
  1. General
  2. Unique ID                                : 315475856293232148872638915111162615072 (0xED5670992236B31C07BD54D2E39A1520)
  3. Complete name                            : Avengers.Infinity.War.2018.1080p.BluRay.REMUX.AVC.DTS-HD.MA.7.1-EPSiLON.mkv
  4. Format                                   : Matroska
  5. Format version                           : Version 4 / Version 2
  6. File size                                : 31.5 GiB
  7. Duration                                 : 2h 29mn
  8. Overall bit rate mode                    : Variable
  9. Overall bit rate                         : 30.2 Mbps
  10. Movie name                               : Avengers: Infinity War
  11. Encoded date                             : UTC 2018-08-01 03:37:03
  12. Writing application                      : mkvmerge v25.0.0 ('Prog Noir') 64-bit
  13. Writing library                          : libebml v1.3.6 + libmatroska v1.4.9
  14.  
  15. Video
  16. ID                                       : 1
  17. Format                                   : AVC
  18. Format/Info                              : Advanced Video Codec
  19. Format profile                           : High@L4.1
  20. Format settings, CABAC                   : Yes
  21. Format settings, ReFrames                : 4 frames
  22. Codec ID                                 : V_MPEG4/ISO/AVC
  23. Duration                                 : 2h 29mn
  24. Bit rate mode                            : Variable
  25. Bit rate                                 : 24.7 Mbps
  26. Maximum bit rate                         : 36.0 Mbps
  27. Width                                    : 1 920 pixels
  28. Height                                   : 1 080 pixels
  29. Display aspect ratio                     : 16:9
  30. Frame rate mode                          : Constant
  31. Frame rate                               : 23.976 (24000/1001) fps
  32. Color space                              : YUV
  33. Chroma subsampling                       : 4:2:0
  34. Bit depth                                : 8 bits
  35. Scan type                                : Progressive
  36. Bits/(Pixel*Frame)                       : 0.497
  37. Stream size                              : 25.8 GiB (82%)
  38. Title                                    : MPEG-4 AVC Video / 25061 kbps / 1080p / 23.976 fps / 16:9 / High Profile 4.1
  39. Language                                 : English
  40. Default                                  : Yes
  41. Forced                                   : No
  42.  
  43. Audio #1
  44. ID                                       : 2
  45. Format                                   : DTS
  46. Format/Info                              : Digital Theater Systems
  47. Format profile                           : MA / Core
  48. Mode                                     : 16
  49. Format settings, Endianness              : Big
  50. Codec ID                                 : A_DTS
  51. Duration                                 : 2h 29mn
  52. Bit rate mode                            : Variable / Constant
  53. Bit rate                                 : 4 901 Kbps / 1 509 Kbps
  54. Channel(s)                               : 8 channels / 6 channels
  55. Channel positions                        : Front: L C R, Side: L R, Back: L R, LFE / Front: L C R, Side: L R, LFE
  56. Sampling rate                            : 48.0 KHz
  57. Frame rate                               : 93.750 fps (512 spf)
  58. Bit depth                                : 24 bits
  59. Compression mode                         : Lossless / Lossy
  60. Stream size                              : 5.11 GiB (16%)
  61. Title                                    : DTS-HD Master Audio / 7.1 / 48 kHz / 4901 kbps / 24-bit
  62. Language                                 : English
  63. Default                                  : Yes
  64. Forced                                   : No
  65.  
  66. Audio #2
  67. ID                                       : 3
  68. Format                                   : AC-3
  69. Format/Info                              : Audio Coding 3
  70. Mode extension                           : CM (complete main)
  71. Format settings, Endianness              : Big
  72. Codec ID                                 : A_AC3
  73. Duration                                 : 2h 29mn
  74. Bit rate mode                            : Constant
  75. Bit rate                                 : 192 Kbps
  76. Channel(s)                               : 2 channels
  77. Channel positions                        : Front: L R
  78. Sampling rate                            : 48.0 KHz
  79. Frame rate                               : 31.250 fps (1536 spf)
  80. Compression mode                         : Lossy
  81. Stream size                              : 205 MiB (1%)
  82. Title                                    : Commentary by Directors Anthony Russo & Joe Russo and Screenwriters Christopher Markus & Stephen McFeely
  83. Language                                 : English
  84. Default                                  : No
  85. Forced                                   : No
  86.  
  87. Text #1
  88. ID                                       : 4
  89. Format                                   : PGS
  90. Codec ID                                 : S_HDMV/PGS
  91. Codec ID/Info                            : Picture based subtitle format used on BDs/HD-DVDs
  92. Duration                                 : 1s 126ms
  93. Bit rate                                 : 86.4 Kbps
  94. Count of elements                        : 2
  95. Stream size                              : 11.9 KiB (0%)
  96. Title                                    : Forced for foreign parts
  97. Language                                 : English
  98. Default                                  : Yes
  99. Forced                                   : No
  100.  
  101. Text #2
  102. ID                                       : 5
  103. Format                                   : PGS
  104. Codec ID                                 : S_HDMV/PGS
  105. Codec ID/Info                            : Picture based subtitle format used on BDs/HD-DVDs
  106. Duration                                 : 2h 28mn
  107. Bit rate                                 : 32.9 Kbps
  108. Count of elements                        : 4134
  109. Stream size                              : 34.9 MiB (0%)
  110. Title                                    : SDH
  111. Language                                 : English
  112. Default                                  : No
  113. Forced                                   : No
  114.  
  115. Text #3
  116. ID                                       : 6
  117. Format                                   : PGS
  118. Codec ID                                 : S_HDMV/PGS
  119. Codec ID/Info                            : Picture based subtitle format used on BDs/HD-DVDs
  120. Duration                                 : 2h 28mn
  121. Bit rate                                 : 24.8 Kbps
  122. Count of elements                        : 3194
  123. Stream size                              : 26.4 MiB (0%)
  124. Title                                    : Canadian
  125. Language                                 : French
  126. Default                                  : No
  127. Forced                                   : No
  128.  
  129. Text #4
  130. ID                                       : 7
  131. Format                                   : PGS
  132. Codec ID                                 : S_HDMV/PGS
  133. Codec ID/Info                            : Picture based subtitle format used on BDs/HD-DVDs
  134. Duration                                 : 2h 28mn
  135. Bit rate                                 : 25.5 Kbps
  136. Count of elements                        : 3132
  137. Stream size                              : 27.2 MiB (0%)
  138. Title                                    : Brazilian
  139. Language                                 : Portuguese
  140. Default                                  : No
  141. Forced                                   : No
  142.  
  143. Text #5
  144. ID                                       : 8
  145. Format                                   : PGS
  146. Codec ID                                 : S_HDMV/PGS
  147. Codec ID/Info                            : Picture based subtitle format used on BDs/HD-DVDs
  148. Duration                                 : 2h 28mn
  149. Bit rate                                 : 24.3 Kbps
  150. Count of elements                        : 3144
  151. Stream size                              : 25.9 MiB (0%)
  152. Title                                    : Latin American
  153. Language                                 : Spanish
  154. Default                                  : No
  155. Forced                                   : No
  156.  
  157. Text #6
  158. ID                                       : 9
  159. Format                                   : PGS
  160. Codec ID                                 : S_HDMV/PGS
  161. Codec ID/Info                            : Picture based subtitle format used on BDs/HD-DVDs
  162. Duration                                 : 2h 29mn
  163. Bit rate                                 : 79.2 Kbps
  164. Count of elements                        : 6036
  165. Stream size                              : 84.5 MiB (0%)
  166. Title                                    : Commentary by Directors Anthony Russo & Joe Russo and Screenwriters Christopher Markus & Stephen McFeely (SDH)
  167. Language                                 : English
  168. Default                                  : No
  169. Forced                                   : No
  170.  
  171. Text #7
  172. ID                                       : 10
  173. Format                                   : PGS
  174. Codec ID                                 : S_HDMV/PGS
  175. Codec ID/Info                            : Picture based subtitle format used on BDs/HD-DVDs
  176. Duration                                 : 2h 29mn
  177. Bit rate                                 : 66.7 Kbps
  178. Count of elements                        : 5839
  179. Stream size                              : 71.2 MiB (0%)
  180. Title                                    : Commentary by Directors Anthony Russo & Joe Russo and Screenwriters Christopher Markus & Stephen McFeely (Canadian)
  181. Language                                 : French
  182. Default                                  : No
  183. Forced                                   : No
  184.  
  185. Text #8
  186. ID                                       : 11
  187. Format                                   : PGS
  188. Codec ID                                 : S_HDMV/PGS
  189. Codec ID/Info                            : Picture based subtitle format used on BDs/HD-DVDs
  190. Duration                                 : 2h 29mn
  191. Bit rate                                 : 66.9 Kbps
  192. Count of elements                        : 5789
  193. Stream size                              : 71.4 MiB (0%)
  194. Title                                    : Commentary by Directors Anthony Russo & Joe Russo and Screenwriters Christopher Markus & Stephen McFeely (Brazilian)
  195. Language                                 : Portuguese
  196. Default                                  : No
  197. Forced                                   : No
  198.  
  199. Text #9
  200. ID                                       : 12
  201. Format                                   : PGS
  202. Codec ID                                 : S_HDMV/PGS
  203. Codec ID/Info                            : Picture based subtitle format used on BDs/HD-DVDs
  204. Duration                                 : 2h 29mn
  205. Bit rate                                 : 69.3 Kbps
  206. Count of elements                        : 5785
  207. Stream size                              : 74.0 MiB (0%)
  208. Title                                    : Commentary by Directors Anthony Russo & Joe Russo and Screenwriters Christopher Markus & Stephen McFeely (Latin American)
  209. Language                                 : Spanish
  210. Default                                  : No
  211. Forced                                   : No
  212.  
  213. Menu
  214. 00:00:00.000                             : en:"Thanos is Coming"
  215. 00:11:28.730                             : en:Infinity Stones
  216. 00:18:13.884                             : en:Fight for the Time Stone
  217. 00:27:23.809                             : en:"Who the Hell are You Guys?"
  218. 00:35:48.813                             : en:Wanda and Vision
  219. 00:42:23.541                             : en:Knowhere
  220. 00:54:12.875                             : en:Avengers Assemble
  221. 00:59:36.740                             : en:"Take the Fight To Him"
  222. 01:05:07.153                             : en:The Soul Stone
  223. 01:10:53.666                             : en:Nidavellir
  224. 01:17:06.956                             : en:Titan
  225. 01:24:14.758                             : en:Vormir
  226. 01:31:08.004                             : en:"Wakanda Forever"
  227. 01:42:00.406                             : en:Stormbreaker
  228. 01:45:57.810                             : en:Titan Confrontation
  229. 01:53:04.069                             : en:"A Vision Situation"
  230. 01:58:52.917                             : en:The Time Stone
  231. 02:03:58.181                             : en:The End Game
  232. 02:11:13.282                             : en:Aftermath
  233. 02:17:31.285                             : en:End Credits
RAW Paste Data
We use cookies for various purposes including analytics. By continuing to use Pastebin, you agree to our use of cookies as described in the Cookies Policy. OK, I Understand
 
Top