SHARE
TWEET

Untitled

a guest Jan 18th, 2014 62 Never
Not a member of Pastebin yet? Sign Up, it unlocks many cool features!
  1. General
  2. Complete name                            : Roxette_Live-Travelling.the.World.2013.XviD.BDRip.avi
  3. Format                                   : AVI
  4. Format/Info                              : Audio Video Interleave
  5. File size                                : 1.45 GiB
  6. Duration                                 : 1h 35mn
  7. Overall bit rate                         : 2 178 Kbps
  8. Movie name                               : Roxette - Live, Travelling the World 2013
  9. Writing application                      : VirtualDubMod 1.5.10.2 (build 2540/release)
  10. Writing library                          : VirtualDubMod build 2540/release
  11.  
  12. Video
  13. ID                                       : 0
  14. Format                                   : MPEG-4 Visual
  15. Format profile                           : Advanced Simple@L5
  16. Format settings, BVOP                    : 4
  17. Format settings, QPel                    : No
  18. Format settings, GMC                     : No warppoints
  19. Format settings, Matrix                  : Default (MPEG)
  20. Codec ID                                 : XVID
  21. Codec ID/Hint                            : XviD
  22. Duration                                 : 1h 35mn
  23. Bit rate                                 : 1 720 Kbps
  24. Width                                    : 720 pixels
  25. Height                                   : 304 pixels
  26. Display aspect ratio                     : 2.35:1
  27. Frame rate                               : 25.000 fps
  28. Color space                              : YUV
  29. Chroma subsampling                       : 4:2:0
  30. Bit depth                                : 8 bits
  31. Scan type                                : Progressive
  32. Compression mode                         : Lossy
  33. Bits/(Pixel*Frame)                       : 0.314
  34. Stream size                              : 1.14 GiB (79%)
  35. Writing library                          : XviD 64
  36.  
  37. Audio
  38. ID                                       : 1
  39. Format                                   : AC-3
  40. Format/Info                              : Audio Coding 3
  41. Mode extension                           : CM (complete main)
  42. Format settings, Endianness              : Big
  43. Codec ID                                 : 2000
  44. Duration                                 : 1h 35mn
  45. Bit rate mode                            : Constant
  46. Bit rate                                 : 448 Kbps
  47. Channel count                            : 6 channels
  48. Channel positions                        : Front: L C R, Side: L R, LFE
  49. Sampling rate                            : 48.0 KHz
  50. Bit depth                                : 16 bits
  51. Compression mode                         : Lossy
  52. Stream size                              : 305 MiB (21%)
  53. Alignment                                : Split accross interleaves
  54. Interleave, duration                     : 40 ms (1.00 video frame)
  55. Interleave, preload duration             : 500 ms
RAW Paste Data
We use cookies for various purposes including analytics. By continuing to use Pastebin, you agree to our use of cookies as described in the Cookies Policy. OK, I Understand
 
Top