SHARE
TWEET

Untitled

a guest Nov 8th, 2019 93 Never
Not a member of Pastebin yet? Sign Up, it unlocks many cool features!
  1. General
  2. Unique ID                                : 208066199324751473039132030653360309343 (0x9C8817A5860446D26C701A0185DD045F)
  3. Complete name                            : Cold.Brook.2019.1080p.WEB-DL.H264.AC3-EVO.mkv
  4. Format                                   : Matroska
  5. Format version                           : Version 4
  6. File size                                : 3.95 GiB
  7. Duration                                 : 1 h 42 min
  8. Overall bit rate                         : 5 532 kb/s
  9. Encoded date                             : UTC 2019-11-08 05:43:02
  10. Writing application                      : mkvmerge v35.0.0 ('All The Love In The World') 64-bit
  11. Writing library                          : libebml v1.3.9 + libmatroska v1.5.2
  12.  
  13. Video
  14. ID                                       : 3
  15. Format                                   : AVC
  16. Format/Info                              : Advanced Video Codec
  17. Format profile                           : High@L4
  18. Format settings                          : CABAC / 4 Ref Frames
  19. Format settings, CABAC                   : Yes
  20. Format settings, Reference frames        : 4 frames
  21. Codec ID                                 : V_MPEG4/ISO/AVC
  22. Duration                                 : 1 h 42 min
  23. Bit rate                                 : 5 146 kb/s
  24. Width                                    : 1 908 pixels
  25. Height                                   : 1 024 pixels
  26. Display aspect ratio                     : 1.85:1
  27. Frame rate mode                          : Constant
  28. Frame rate                               : 23.976 FPS
  29. Color space                              : YUV
  30. Chroma subsampling                       : 4:2:0
  31. Bit depth                                : 8 bits
  32. Scan type                                : Progressive
  33. Bits/(Pixel*Frame)                       : 0.110
  34. Stream size                              : 3.67 GiB (93%)
  35. Language                                 : English
  36. Default                                  : Yes
  37. Forced                                   : No
  38. Color range                              : Limited
  39. Color primaries                          : BT.709
  40. Transfer characteristics                 : BT.709
  41. Matrix coefficients                      : BT.709
  42.  
  43. Audio
  44. ID                                       : 2
  45. Format                                   : AC-3
  46. Format/Info                              : Audio Coding 3
  47. Commercial name                          : Dolby Digital
  48. Codec ID                                 : A_AC3
  49. Duration                                 : 1 h 42 min
  50. Bit rate mode                            : Constant
  51. Bit rate                                 : 384 kb/s
  52. Channel(s)                               : 6 channels
  53. Channel layout                           : L R C LFE Ls Rs
  54. Sampling rate                            : 48.0 kHz
  55. Frame rate                               : 31.250 FPS (1536 SPF)
  56. Compression mode                         : Lossy
  57. Delay relative to video                  : -42 ms
  58. Stream size                              : 281 MiB (7%)
  59. Language                                 : English
  60. Service kind                             : Complete Main
  61. Default                                  : Yes
  62. Forced                                   : No
  63.  
  64. Text
  65. ID                                       : 1
  66. Format                                   : UTF-8
  67. Codec ID                                 : S_TEXT/UTF8
  68. Codec ID/Info                            : UTF-8 Plain Text
  69. Duration                                 : 1 h 41 min
  70. Bit rate                                 : 74 b/s
  71. Count of elements                        : 1636
  72. Stream size                              : 55.5 KiB (0%)
  73. Language                                 : English
  74. Default                                  : Yes
  75. Forced                                   : No
  76.  
  77. Menu
  78. 00:00:00.000                             : en:1
  79. 00:04:39.000                             : en:2
  80. 00:13:43.000                             : en:3
  81. 00:22:51.000                             : en:4
  82. 00:33:20.000                             : en:5
  83. 00:44:10.000                             : en:6
  84. 00:53:07.000                             : en:7
  85. 01:03:19.000                             : en:8
  86. 01:14:00.000                             : en:9
  87. 01:24:32.000                             : en:10
  88. 01:37:18.000                             : en:11
RAW Paste Data
We use cookies for various purposes including analytics. By continuing to use Pastebin, you agree to our use of cookies as described in the Cookies Policy. OK, I Understand
Top