SHARE
TWEET

Akumajou Densetsu Soundtrack cuesheet

a guest Dec 27th, 2018 108 Never
Not a member of Pastebin yet? Sign Up, it unlocks many cool features!
  1. TITLE "Akumajou Densetsu Soundtrack"
  2. PERFORMER ""
  3. FILE "C:\Users\Etienne\Downloads\Akumajou Densetsu Soundtrack.flac" FLAC
  4.     TRACK 01 AUDIO
  5.         TITLE "Prelude (??????)"
  6.         INDEX 01 00:01:00
  7.     TRACK 02 AUDIO
  8.         TITLE "Epitaph (????????)"
  9.         INDEX 01 01:44:00
  10.     TRACK 03 AUDIO
  11.         TITLE "Prayer (??????)"
  12.         INDEX 01 02:35:00
  13.     TRACK 04 AUDIO
  14.         TITLE "Beginning (???????????)"
  15.         INDEX 01 02:46:00
  16.     TRACK 05 AUDIO
  17.         TITLE "Boss Fight (???)"
  18.         INDEX 01 04:36:00
  19.     TRACK 06 AUDIO
  20.         TITLE "Boss Clear (???????)"
  21.         INDEX 01 06:07:00
  22.     TRACK 07 AUDIO
  23.         TITLE "Destiny (??)"
  24.         INDEX 01 06:14:00
  25.     TRACK 08 AUDIO
  26.         TITLE "Clockwork (???????)"
  27.         INDEX 01 06:52:00
  28.     TRACK 09 AUDIO
  29.         TITLE "Mad Forest (?????)"
  30.         INDEX 01 08:26:00
  31.     TRACK 10 AUDIO
  32.         TITLE "Anxiety (???????)"
  33.         INDEX 01 10:05:00
  34.     TRACK 11 AUDIO
  35.         TITLE "Rising (?????)"
  36.         INDEX 01 12:18:00
  37.     TRACK 12 AUDIO
  38.         TITLE "Stream (???????)"
  39.         INDEX 01 14:07:00
  40.     TRACK 13 AUDIO
  41.         TITLE "Dead Beat (??????)"
  42.         INDEX 01 15:31:00
  43.     TRACK 14 AUDIO
  44.         TITLE "Nightmare (???????)"
  45.         INDEX 01 17:10:00
  46.     TRACK 15 AUDIO
  47.         TITLE "Encounter (????????)"
  48.         INDEX 01 18:48:00
  49.     TRACK 16 AUDIO
  50.         TITLE "Aquarius (????????)"
  51.         INDEX 01 19:22:00
  52.     TRACK 17 AUDIO
  53.         TITLE "Demon Seed (????????????)"
  54.         INDEX 01 20:45:00
  55.     TRACK 18 AUDIO
  56.         TITLE "Dejavu (????????????)"
  57.         INDEX 01 22:17:00
  58.     TRACK 19 AUDIO
  59.         TITLE "Riddle (????????????)"
  60.         INDEX 01 23:25:00
  61.     TRACK 20 AUDIO
  62.         TITLE "Pressure (?????????????????)"
  63.         INDEX 01 24:59:00
  64.     TRACK 21 AUDIO
  65.         TITLE "Overture (??????1??)"
  66.         INDEX 01 25:37:00
  67.     TRACK 22 AUDIO
  68.         TITLE "Big Battle (??????2??)"
  69.         INDEX 01 27:41:00
  70.     TRACK 23 AUDIO
  71.         TITLE "Big Battle (??????3??)"
  72.         INDEX 01 29:03:00
  73.     TRACK 24 AUDIO
  74.         TITLE "All Clear (??????????)"
  75.         INDEX 01 30:15:00
  76.     TRACK 25 AUDIO
  77.         TITLE "Evergreen (????????????)"
  78.         INDEX 01 30:25:00
  79.     TRACK 26 AUDIO
  80.         TITLE "Flash Back (???????????)"
  81.         INDEX 01 31:32:00
  82.     TRACK 27 AUDIO
  83.         TITLE "Game Over (???????)"
  84.         INDEX 01 32:44:00
  85.     TRACK 28 AUDIO
  86.         TITLE "Big Battle (??????3??)
  87.         INDEX 01 32:55:00
  88.     TRACK 29 AUDIO
  89.         TITLE "No reverb"
  90.         INDEX 01 34:10:00
RAW Paste Data
We use cookies for various purposes including analytics. By continuing to use Pastebin, you agree to our use of cookies as described in the Cookies Policy. OK, I Understand
 
Top