SHARE
TWEET

untitled

loverboy94 Jan 18th, 2019 66 Never
Not a member of Pastebin yet? Sign Up, it unlocks many cool features!
  1. *** General
  2. Complete name                             :  The.Standoff.at.Sparrow.Creek.2019.1080p.WEB-DL.DD5.1.H264-CMRG.mkv
  3. Format                                    :  Matroska
  4. Format version                            :  Version 4
  5. File size                                 :  3.10 GiB
  6. Duration                                  :  1 h 29 min
  7. Overall bit rate                          :  4 988 kb/s
  8. Movie name                                :  CMRG
  9. Encoded date                              :  UTC 2019-01-18 05:05:51
  10. Writing application                       :  mkvmerge v11.0.0 ('Alive') 64bit
  11. Writing library                           :  libebml v1.3.4 + libmatroska v1.4.5
  12.  
  13. *** Video
  14. ID                                        :  1
  15. Format                                    :  AVC
  16. Format/Info                               :  Advanced Video Codec
  17. Format profile                            :  High@L4
  18. Format settings                           :  CABAC / 5 Ref Frames
  19. Format settings, CABAC                    :  Yes
  20. Format settings, ReFrames                 :  5 frames
  21. Format settings, GOP                      :  N=1
  22. Codec ID                                  :  V_MPEG4/ISO/AVC
  23. Duration                                  :  1 h 29 min
  24. Bit rate                                  :  4 603 kb/s
  25. Width                                     :  1 920 pixels
  26. Height                                    :  802 pixels
  27. Display aspect ratio                      :  2.40:1
  28. Frame rate mode                           :  Constant
  29. Frame rate                                :  23.976 (23976/1000) FPS
  30. Color space                               :  YUV
  31. Chroma subsampling                        :  4:2:0
  32. Bit depth                                 :  8 bits
  33. Scan type                                 :  Progressive
  34. Bits/(Pixel*Frame)                        :  0.125
  35. Stream size                               :  2.86 GiB (92%)
  36. Language                                  :  English
  37. Default                                   :  Yes
  38. Forced                                    :  No
  39. Color range                               :  Limited
  40. Color primaries                           :  BT.709
  41. Transfer characteristics                  :  BT.709
  42. Matrix coefficients                       :  BT.709
  43.  
  44. *** Audio
  45. ID                                        :  2
  46. Format                                    :  AC-3
  47. Format/Info                               :  Audio Coding 3
  48. Commercial name                           :  Dolby Digital
  49. Codec ID                                  :  A_AC3
  50. Duration                                  :  1 h 29 min
  51. Bit rate mode                             :  Constant
  52. Bit rate                                  :  384 kb/s
  53. Channel(s)                                :  6 channels
  54. Channel layout                            :  L R C LFE Ls Rs
  55. Sampling rate                             :  48.0 kHz
  56. Frame rate                                :  31.250 FPS (1536 SPF)
  57. Bit depth                                 :  16 bits
  58. Compression mode                          :  Lossy
  59. Delay relative to video                   :  -42 ms
  60. Stream size                               :  245 MiB (8%)
  61. Language                                  :  English
  62. Service kind                              :  Complete Main
  63. Default                                   :  Yes
  64. Forced                                    :  No
  65.  
  66. *** Menu
  67. 00 : 00:00.000                             : en:1
  68. 00 : 09:06.588                             : en:2
  69. 00 : 18:06.794                             : en:3
  70. 00 : 31:00.692                             : en:4
  71. 00 : 37:52.270                             : en:5
  72. 00 : 48:17.895                             : en:6
  73. 01 : 00:09.856                             : en:7
  74. 01 : 12:12.161                             : en:8
  75. 01 : 20:31.410                             : en:9
  76. 01 : 24:00.494                             : en:10
RAW Paste Data
We use cookies for various purposes including analytics. By continuing to use Pastebin, you agree to our use of cookies as described in the Cookies Policy. OK, I Understand
 
Top