iMN0

Breaking.In.2018.1080p.BluRay.x264-GECKOS.mkv

Jul 25th, 2018
22
Never
Not a member of Pastebin yet? Sign Up, it unlocks many cool features!
  1. General
  2. Unique ID : 175739388265813295990856441646680612637 (0x84362CCE90D1CE5EA0F629742D579F1D)
  3. Complete name : Breaking.In.2018.1080p.BluRay.x264-GECKOS.mkv
  4. Format : Matroska
  5. Format version : Version 4 / Version 2
  6. File size : 6.56 GiB
  7. Duration : 1h 28mn
  8. Overall bit rate : 10.6 Mbps
  9. Encoded date : UTC 2018-07-25 01:32:36
  10. Writing application : mkvmerge v8.3.0 ('Over the Horizon') 64bit
  11. Writing library : libebml v1.3.1 + libmatroska v1.4.2
  12.  
  13. Video
  14. ID : 1
  15. Format : AVC
  16. Format/Info : Advanced Video Codec
  17. Format profile : High@L4.1
  18. Format settings, CABAC : Yes
  19. Format settings, ReFrames : 5 frames
  20. Codec ID : V_MPEG4/ISO/AVC
  21. Duration : 1h 28mn
  22. Bit rate : 9 109 Kbps
  23. Width : 1 920 pixels
  24. Height : 808 pixels
  25. Display aspect ratio : 2.40:1
  26. Frame rate mode : Constant
  27. Frame rate : 23.976 fps
  28. Color space : YUV
  29. Chroma subsampling : 4:2:0
  30. Bit depth : 8 bits
  31. Scan type : Progressive
  32. Bits/(Pixel*Frame) : 0.245
  33. Stream size : 5.62 GiB (86%)
  34. Writing library : x264 core 155 r2901 7d0ff22
  35. Encoding settings : cabac=1 / ref=5 / deblock=1:0:0 / analyse=0x3:0x133 / me=umh / subme=7 / psy=1 / psy_rd=1.00:0.00 / mixed_ref=1 / me_range=16 / chroma_me=1 / trellis=1 / 8x8dct=1 / cqm=0 / deadzone=21,11 / fast_pskip=0 / chroma_qp_offset=-2 / threads=25 / lookahead_threads=4 / sliced_threads=0 / nr=0 / decimate=1 / interlaced=0 / bluray_compat=0 / constrained_intra=0 / bframes=3 / b_pyramid=2 / b_adapt=1 / b_bias=0 / direct=1 / weightb=1 / open_gop=0 / weightp=2 / keyint=250 / keyint_min=23 / scenecut=40 / intra_refresh=0 / rc_lookahead=40 / rc=2pass / mbtree=1 / bitrate=9109 / ratetol=1.0 / qcomp=0.60 / qpmin=0 / qpmax=69 / qpstep=4 / cplxblur=20.0 / qblur=0.5 / ip_ratio=1.40 / aq=1:1.00
  36. Language : English
  37. Default : Yes
  38. Forced : No
  39.  
  40. Audio
  41. ID : 2
  42. Format : DTS
  43. Format/Info : Digital Theater Systems
  44. Mode : 16
  45. Format settings, Endianness : Big
  46. Codec ID : A_DTS
  47. Duration : 1h 28mn
  48. Bit rate mode : Constant
  49. Bit rate : 1 509 Kbps
  50. Channel(s) : 6 channels
  51. Channel positions : Front: L C R, Side: L R, LFE
  52. Sampling rate : 48.0 KHz
  53. Frame rate : 93.750 fps (512 spf)
  54. Bit depth : 24 bits
  55. Compression mode : Lossy
  56. Stream size : 954 MiB (14%)
  57. Language : English
  58. Default : Yes
  59. Forced : No
  60.  
  61. Menu
  62. 00:00:00.000 : en:00:00:00.000
  63. 00:05:16.191 : en:00:05:16.191
  64. 00:10:03.686 : en:00:10:03.686
  65. 00:14:04.552 : en:00:14:04.552
  66. 00:17:30.049 : en:00:17:30.049
  67. 00:21:46.263 : en:00:21:46.263
  68. 00:25:35.409 : en:00:25:35.409
  69. 00:31:09.576 : en:00:31:09.576
  70. 00:37:02.137 : en:00:37:02.137
  71. 00:41:01.125 : en:00:41:01.125
  72. 00:44:33.796 : en:00:44:33.796
  73. 00:50:41.163 : en:00:50:41.163
  74. 00:54:37.608 : en:00:54:37.608
  75. 01:00:32.754 : en:01:00:32.754
  76. 01:04:42.921 : en:01:04:42.921
  77. 01:10:13.167 : en:01:10:13.167
  78. 01:13:30.573 : en:01:13:30.573
  79. 01:16:38.552 : en:01:16:38.552
  80. 01:21:17.623 : en:01:21:17.623
  81. 01:25:52.147 : en:01:25:52.147
RAW Paste Data