SHARE
TWEET

Untitled

a guest Aug 6th, 2017 132 Never
Not a member of Pastebin yet? Sign Up, it unlocks many cool features!
  1. PERFORMER ".quiLa"
  2. TITLE "quiLa. March Reviewed"
  3. FILE "Mix.mp3" MP3
  4.   TRACK 01 AUDIO
  5.     TITLE "Im the ish (REMIX)"
  6.     PERFORMER "Kanye West"
  7.     INDEX 01 00:00:00
  8.   TRACK 02 AUDIO
  9.     TITLE "Bass down low (REMIX)"
  10.     PERFORMER "Dev FT The Cataracs"
  11.     INDEX 01 04:05:00
  12.   TRACK 03 AUDIO
  13.     TITLE "Just a dream (REMIX)"
  14.     PERFORMER "Nelly"
  15.     INDEX 01 08:19:00
  16.   TRACK 04 AUDIO
  17.     TITLE "Charles le freak"
  18.     PERFORMER "Mike Santoz"
  19.     INDEX 01 11:30:00
  20.   TRACK 05 AUDIO
  21.     TITLE "Born this way (REMIX)"
  22.     PERFORMER "Lady Gaga"
  23.     INDEX 01 13:13:00
  24.   TRACK 06 AUDIO
  25.     TITLE "Dancing tonight"
  26.     PERFORMER "Kat Deluna"
  27.     INDEX 01 16:28:00
  28.   TRACK 07 AUDIO
  29.     TITLE "On the floor (REMIX)"
  30.     PERFORMER "Jennifer Lopez"
  31.     INDEX 01 19:47:00
  32.   TRACK 08 AUDIO
  33.     TITLE "Sweat"
  34.     PERFORMER "David Guetaa FT Snoop Dogg"
  35.     INDEX 01 21:53:00
  36.   TRACK 09 AUDIO
  37.     TITLE "Where do we go here (REMIX)"
  38.     PERFORMER "Pitbull Ft Chris Brown"
  39.     INDEX 01 24:46:00
  40.   TRACK 10 AUDIO
  41.     TITLE "Hypnotize"
  42.     PERFORMER "Ramirez del flow"
  43.     INDEX 01 27:23:00
  44.   TRACK 11 AUDIO
  45.     TITLE "Intoxicated"
  46.     PERFORMER "Maximo"
  47.     INDEX 01 28:10:00
  48.   TRACK 12 AUDIO
  49.     TITLE "Give me everything"
  50.     PERFORMER "Pitbull"
  51.     INDEX 01 29:35:00
  52.   TRACK 13 AUDIO
  53.     TITLE "Reino de espana"
  54.     PERFORMER "Musiqfuckersz"
  55.     INDEX 01 32:40:00
  56.   TRACK 14 AUDIO
  57.     TITLE "Aqualight"
  58.     PERFORMER "Micheal White"
  59.     INDEX 01 33:50:00
  60.   TRACK 15 AUDIO
  61.     TITLE "Little bad girl (REMIX)"
  62.     PERFORMER "Taio Cruz"
  63.     INDEX 01 35:54:00
  64.   TRACK 16 AUDIO
  65.     TITLE "Kom maar op"
  66.     PERFORMER "Marco Borsato FT Lange Frans"
  67.     INDEX 01 39:43:00
  68.   TRACK 17 AUDIO
  69.     TITLE "Autosave"
  70.     PERFORMER "Fedde le Grand"
  71.     INDEX 01 42:30:00
  72.   TRACK 18 AUDIO
  73.     TITLE "Grenade (REMIX)"
  74.     PERFORMER "Bruno Mars"
  75.     INDEX 01 48:05:00
  76.   TRACK 19 AUDIO
  77.     TITLE "Make you pop"
  78.     PERFORMER "Diplo"
  79.     INDEX 01 52:57:00
  80.   TRACK 20 AUDIO
  81.     TITLE "Last night (REMIX)"
  82.     PERFORMER "Ian Carey FT Snoop Dogg"
  83.     INDEX 01 56:33:00
  84.   TRACK 21 AUDIO
  85.     TITLE "Something on you mind (REMIX)"
  86.     PERFORMER "Abigail Bailey"
  87.     INDEX 01 58:52:00
  88.   TRACK 22 AUDIO
  89.     TITLE "Tell me (REMIX)"
  90.     PERFORMER "Firebeatz"
  91.     INDEX 01 60:26:00
  92.   TRACK 23 AUDIO
  93.     TITLE "Could you be loved (REMIX)"
  94.     PERFORMER "Bob Marley"
  95.     INDEX 01 63:33:00
  96.   TRACK 24 AUDIO
  97.     TITLE "Sun is shining (REMIX)"
  98.     PERFORMER "Bob Marley"
  99.     INDEX 01 66:38:00
  100.   TRACK 25 AUDIO
  101.     TITLE "Light up the night (REMIX)"
  102.     PERFORMER "Black eyed peas"
  103.     INDEX 01 68:50:00
  104.   TRACK 26 AUDIO
  105.     TITLE "Just cant get enough (REMIX)"
  106.     PERFORMER "Black eyed peas"
  107.     INDEX 01 71:55:00
RAW Paste Data
We use cookies for various purposes including analytics. By continuing to use Pastebin, you agree to our use of cookies as described in the Cookies Policy. OK, I Understand
 
Top