daily pastebin goal
8%
SHARE
TWEET

Untitled

a guest Dec 12th, 2018 63 Never
Not a member of Pastebin yet? Sign Up, it unlocks many cool features!
  1. Complete name                    : C:\Users\kym\Downloads\[Fate_Zero][BDRip][AVC_AAC][720P]\[Fate_Zero][BDRip][15][AVC_AAC][720P].mp4
  2. Format                           : MPEG-4
  3. Format profile                   : Base Media
  4. Codec ID                         : isom
  5. File size                        : 469 MiB
  6. Duration                         : 23mn 42s
  7. Overall bit rate                 : 2 770 Kbps
  8. Encoded date                     : UTC 2012-09-21 08:51:20
  9. Tagged date                      : UTC 2012-09-21 08:51:20
  10.  
  11. Video
  12. ID                               : 1
  13. Format                           : AVC
  14. Format/Info                      : Advanced Video Codec
  15. Format profile                   : High@L4.0
  16. Format settings, CABAC           : Yes
  17. Format settings, ReFrames        : 6 frames
  18. Format settings, GOP             : M=7, N=24
  19. Codec ID                         : avc1
  20. Codec ID/Info                    : Advanced Video Coding
  21. Duration                         : 23mn 41s
  22. Bit rate                         : 2 589 Kbps
  23. Maximum bit rate                 : 27.3 Mbps
  24. Width                            : 1 280 pixels
  25. Height                           : 720 pixels
  26. Display aspect ratio             : 16:9
  27. Frame rate mode                  : Constant
  28. Frame rate                       : 23.976 fps
  29. Color space                      : YUV
  30. Chroma subsampling               : 4:2:0
  31. Bit depth                        : 8 bits
  32. Scan type                        : Progressive
  33. Bits/(Pixel*Frame)               : 0.117
  34. Stream size                      : 439 MiB (93%)
  35. Encoded date                     : UTC 2012-09-21 08:46:33
  36. Tagged date                      : UTC 2012-09-21 08:51:25
  37.  
  38. Audio
  39. ID                               : 2
  40. Format                           : AAC
  41. Format/Info                      : Advanced Audio Codec
  42. Format profile                   : LC
  43. Codec ID                         : 40
  44. Duration                         : 23mn 42s
  45. Bit rate mode                    : Variable
  46. Bit rate                         : 177 Kbps
  47. Maximum bit rate                 : 226 Kbps
  48. Channel(s)                       : 2 channels
  49. Channel positions                : Front: L R
  50. Sampling rate                    : 48.0 KHz
  51. Compression mode                 : Lossy
  52. Stream size                      : 29.9 MiB (6%)
  53. Encoded date                     : UTC 2012-09-21 08:51:23
  54. Tagged date                      : UTC 2012-09-21 08:51:25
  55.  
  56. Menu
  57. 00:00:00.000                     : Chapter 01
  58. 00:01:35.011                     : Chapter 02
  59. 00:03:04.976                     : Chapter 03
  60. 00:07:40.585                     : Chapter 04
  61. 00:11:43.995                     : Chapter 05
  62. 00:13:27.306                     : Chapter 06
  63. 00:16:01.961                     : Chapter 07
  64. 00:21:55.981                     : Chapter 08
  65. 00:23:25.946                     : Chapter 09
RAW Paste Data
We use cookies for various purposes including analytics. By continuing to use Pastebin, you agree to our use of cookies as described in the Cookies Policy. OK, I Understand
 
Top