SHARE
TWEET

[Harunatsu] Beatless - 03 [720p Hi444PP E-AC-3][E869BFCB]

a guest Feb 5th, 2018 35 Never
Not a member of Pastebin yet? Sign Up, it unlocks many cool features!
  1. General
  2. Unique ID                                : 182925729328696670579502263033911317163 (0x899E36C6D2BCA6E2BACE666AEE0412AB)
  3. Format                                   : Matroska
  4. Format version                           : Version 4 / Version 2
  5. File size                                : 269 MiB
  6. Duration                                 : 24 min 27 s
  7. Overall bit rate                         : 1 539 kb/s
  8. Encoded date                             : UTC 2018-02-02 19:31:24
  9. Writing application                      : mkvmerge v7.5.0 ('Glass Culture') 32bit built on Jan  4 2015 16:37:25
  10. Writing library                          : libebml v1.3.1 + libmatroska v1.4.2
  11. Attachments                              : Alegreya_Sans_Regular_0.ttf / Jura-Light_0.ttf / Patinio Futura_0.ttf
  12.  
  13. Video
  14. ID                                       : 1
  15. Format                                   : AVC
  16. Format/Info                              : Advanced Video Codec
  17. Format profile                           : High 4:4:4 Predictive@L5
  18. Format settings, CABAC                   : Yes
  19. Format settings, ReFrames                : 16 frames
  20. Codec ID                                 : V_MPEG4/ISO/AVC
  21. Duration                                 : 24 min 27 s
  22. Bit rate                                 : 1 311 kb/s
  23. Width                                    : 1 280 pixels
  24. Height                                   : 720 pixels
  25. Display aspect ratio                     : 16:9
  26. Frame rate mode                          : Constant
  27. Frame rate                               : 23.976 (24000/1001) FPS
  28. Color space                              : YUV
  29. Chroma subsampling                       : 4:4:4
  30. Bit depth                                : 10 bits
  31. Scan type                                : Progressive
  32. Bits/(Pixel*Frame)                       : 0.059
  33. Stream size                              : 229 MiB (85%)
  34. Title                                    : 720p 10-bit Hi444PP
  35. Writing library                          : x264 core 152 r2851kMod ba24899
  36. Encoding settings                        : cabac=1 / ref=16 / deblock=1:0:0 / analyse=0x1:0x131 / me=umh / subme=10 / psy=1 / fade_compensate=0.00 / psy_rd=0.60:0.00 / mixed_ref=1 / me_range=32 / chroma_me=1 / trellis=2 / 8x8dct=0 / cqm=0 / deadzone=21,11 / fast_pskip=1 / chroma_qp_offset=4 / threads=12 / lookahead_threads=3 / sliced_threads=0 / nr=0 / decimate=1 / interlaced=0 / bluray_compat=0 / constrained_intra=0 / bframes=10 / b_pyramid=2 / b_adapt=2 / b_bias=0 / direct=3 / weightb=1 / open_gop=0 / weightp=2 / keyint=250 / keyint_min=23 / scenecut=40 / intra_refresh=0 / rc_lookahead=60 / rc=crf / mbtree=1 / crf=15.0000 / qcomp=0.75 / qpmin=0 / qpmax=81 / qpstep=4 / ip_ratio=1.40 / aq=3:0.80
  37. Language                                 : Japanese
  38. Default                                  : Yes
  39. Forced                                   : No
  40. Color range                              : Limited
  41. Color primaries                          : BT.709
  42. Transfer characteristics                 : BT.709
  43. Matrix coefficients                      : BT.709
  44.  
  45. Audio
  46. ID                                       : 2
  47. Format                                   : E-AC-3
  48. Format/Info                              : Enhanced Audio Coding 3
  49. Format settings, Endianness              : Big
  50. Codec ID                                 : A_EAC3
  51. Duration                                 : 24 min 26 s
  52. Bit rate mode                            : Constant
  53. Bit rate                                 : 224 kb/s
  54. Channel(s)                               : 2 channels
  55. Channel positions                        : Front: L R
  56. Sampling rate                            : 48.0 kHz
  57. Frame rate                               : 187.500 FPS (256 spf)
  58. Compression mode                         : Lossy
  59. Stream size                              : 39.2 MiB (15%)
  60. Title                                    : EAC3
  61. Language                                 : Japanese
  62. Service kind                             : Complete Main
  63. Default                                  : Yes
  64. Forced                                   : No
  65.  
  66. Text
  67. ID                                       : 3
  68. Format                                   : ASS
  69. Codec ID                                 : S_TEXT/ASS
  70. Codec ID/Info                            : Advanced Sub Station Alpha
  71. Duration                                 : 24 min 24 s
  72. Bit rate                                 : 160 b/s
  73. Count of elements                        : 448
  74. Compression mode                         : Lossless
  75. Stream size                              : 28.7 KiB (0%)
  76. Title                                    : Harunatsu
  77. Language                                 : English
  78. Default                                  : Yes
  79. Forced                                   : No
  80.  
  81. Menu
  82. 00:00:00.033                             : en:Intro
  83. 00:00:00.000                             : en:Prologue
  84. 00:00:39.010                             : en:Opening
  85. 00:02:08.980                             : en:Main
  86. 00:21:05.910                             : en:Ending
  87. 00:22:35.950                             : en:Afterwards
  88. 00:23:56.950                             : en:Next time
RAW Paste Data
We use cookies for various purposes including analytics. By continuing to use Pastebin, you agree to our use of cookies as described in the Cookies Policy. OK, I Understand
Top