SHARE
TWEET

Badla.2019.Hindi.1080p.Hindi.1080p.NF.WeB.DL.H264.DDP.5.1.DusIcTv.mkv

iMN0 Apr 19th, 2019 51 Never
Not a member of Pastebin yet? Sign Up, it unlocks many cool features!
  1. General
  2. Unique ID                                : 63395035737676709463004244687903528015 (0x2FB1709474E8804EEA4E3FAC85A8144F)
  3. Complete name                            : Badla.2019.Hindi.1080p.Hindi.1080p.NF.WeB.DL.H264.DDP.5.1.DusIcTv.mkv
  4. Format                                   : Matroska
  5. Format version                           : Version 4
  6. File size                                : 4.07 GiB
  7. Duration                                 : 1 h 57 min
  8. Overall bit rate                         : 4 965 kb/s
  9. Movie name                               : www.bwt.pw
  10. Encoded date                             : UTC 2019-04-19 03:11:20
  11. Writing application                      : mkvmerge v25.0.0 ('Prog Noir') 64-bit
  12. Writing library                          : libebml v1.3.6 + libmatroska v1.4.9
  13.  
  14. Video
  15. ID                                       : 2
  16. Format                                   : AVC
  17. Format/Info                              : Advanced Video Codec
  18. Format profile                           : High@L4
  19. Format settings                          : CABAC / 5 Ref Frames
  20. Format settings, CABAC                   : Yes
  21. Format settings, ReFrames                : 5 frames
  22. Codec ID                                 : V_MPEG4/ISO/AVC
  23. Duration                                 : 1 h 57 min
  24. Bit rate                                 : 4 579 kb/s
  25. Width                                    : 1 920 pixels
  26. Height                                   : 804 pixels
  27. Display aspect ratio                     : 2.40:1
  28. Frame rate mode                          : Constant
  29. Frame rate                               : 24.000 FPS
  30. Color space                              : YUV
  31. Chroma subsampling                       : 4:2:0
  32. Bit depth                                : 8 bits
  33. Scan type                                : Progressive
  34. Bits/(Pixel*Frame)                       : 0.124
  35. Stream size                              : 3.75 GiB (92%)
  36. Title                                    : www.bwt.pw
  37. Language                                 : English
  38. Default                                  : Yes
  39. Forced                                   : No
  40. Color range                              : Limited
  41. Color primaries                          : BT.709
  42. Transfer characteristics                 : BT.709
  43. Matrix coefficients                      : BT.709
  44.  
  45. Audio
  46. ID                                       : 1
  47. Format                                   : AC-3
  48. Format/Info                              : Audio Coding 3
  49. Commercial name                          : Dolby Digital
  50. Codec ID                                 : A_AC3
  51. Duration                                 : 1 h 57 min
  52. Bit rate mode                            : Constant
  53. Bit rate                                 : 384 kb/s
  54. Channel(s)                               : 6 channels
  55. Channel layout                           : L R C LFE Ls Rs
  56. Sampling rate                            : 48.0 kHz
  57. Frame rate                               : 31.250 FPS (1536 SPF)
  58. Bit depth                                : 16 bits
  59. Compression mode                         : Lossy
  60. Delay relative to video                  : -42 ms
  61. Stream size                              : 322 MiB (8%)
  62. Title                                    : www.bwt.pw
  63. Language                                 : Hindi
  64. Service kind                             : Complete Main
  65. Default                                  : Yes
  66. Forced                                   : No
  67.  
  68. Text
  69. ID                                       : 3
  70. Format                                   : UTF-8
  71. Codec ID                                 : S_TEXT/UTF8
  72. Codec ID/Info                            : UTF-8 Plain Text
  73. Duration                                 : 1 h 48 min
  74. Bit rate                                 : 65 b/s
  75. Count of elements                        : 1699
  76. Stream size                              : 51.8 KiB (0%)
  77. Title                                    : www.bwt.pw
  78. Language                                 : English
  79. Default                                  : Yes
  80. Forced                                   : No
  81.  
  82. Menu
  83. 00:00:00.000                             : en:फीचर प्रारंभ
  84. 00:01:03.125                             : en:शीर्षक
  85. 01:51:47.000                             : en:कलाकार व कर्मचारी वर्ग
RAW Paste Data
We use cookies for various purposes including analytics. By continuing to use Pastebin, you agree to our use of cookies as described in the Cookies Policy. OK, I Understand
 
Top