SHARE
TWEET

Untitled

a guest Dec 15th, 2018 136 Never
Not a member of Pastebin yet? Sign Up, it unlocks many cool features!
  1. [19:24:05] macgui: Handbrake Version: 1.1.2  (2018090500)
  2. [19:24:06] hb_init: starting libhb thread
  3. [19:24:06] hb_init: starting libhb thread
  4. [19:24:19] macgui: trying to open a folder or file
  5. [19:24:19] macgui: ScanCore scanning titles with a duration of 10 seconds or more
  6. [19:24:19] CPU: Intel(R) Core(TM) i5-2467M CPU @ 1.60GHz
  7. [19:24:19]  - Intel microarchitecture Sandy Bridge
  8. [19:24:19]  - logical processor count: 4
  9. [19:24:19] hb_scan: path=/Volumes/Extreme SSD/TPU Curso/Vídeos/*Original VariableFR/KMPB1703.MOV, title_index=0
  10. udfread ERROR: ECMA 167 Volume Recognition failed
  11. disc.c:323: failed opening UDF image /Volumes/Extreme SSD/TPU Curso/Vídeos/*Original VariableFR/KMPB1703.MOV
  12. disc.c:424: error opening file BDMV/index.bdmv
  13. disc.c:424: error opening file BDMV/BACKUP/index.bdmv
  14. [19:24:19] bd: not a bd - trying as a stream/file instead
  15. libdvdnav: Using dvdnav version 6.0.0
  16. libdvdread: Encrypted DVD support unavailable.
  17. libdvdread:DVDOpenFileUDF:UDFFindFile /VIDEO_TS/VIDEO_TS.IFO failed
  18. libdvdread:DVDOpenFileUDF:UDFFindFile /VIDEO_TS/VIDEO_TS.BUP failed
  19. libdvdread: Can't open file VIDEO_TS.IFO.
  20. libdvdnav: vm: failed to read VIDEO_TS.IFO
  21. [19:24:19] dvd: not a dvd - trying as a stream/file instead
  22. Input #0, mov,mp4,m4a,3gp,3g2,mj2, from '/Volumes/Extreme SSD/TPU Curso/Vídeos/*Original VariableFR/KMPB1703.MOV':
  23.   Metadata:
  24.     major_brand     : qt  
  25.     minor_version   : 0
  26.     compatible_brands: qt  
  27.     creation_time   : 2018-11-03 14:56:36
  28.   Duration: 15:59:01.73, start: -57396.653333, bitrate: 126 kb/s
  29.     Stream #0:0(und): Video: hevc (Main) [hvc1 / 0x31637668]
  30.       yuv420p, tv, bt709/bt709/bt709
  31.       2048x1152 [PAR 1:1 DAR 16:9], 50008 kb/s, PAR 1:1 DAR 16:9
  32.       24 fps, 600 tbn (default)
  33.     Metadata:
  34.       creation_time   : 2018-11-03 14:56:36
  35.       handler_name    : Core Media Data Handler
  36.       encoder         : HEVC
  37.     Stream #0:1(und): Audio: alac [alac / 0x63616C61]
  38.       48000 Hz, stereo, s16p, 152 kb/s (default)
  39.     Metadata:
  40.       creation_time   : 2018-11-03 14:56:36
  41.       handler_name    : Core Media Data Handler
  42.     Stream #0:2(und): Data: tmcd / 0x64636D74 (default)
  43.     Metadata:
  44.       creation_time   : 2018-11-03 14:56:36
  45.       handler_name    : Core Media Data Handler
  46. [19:24:19] scan: decoding previews for title 1
  47. [19:24:20] scan: audio 0x1: alac, rate=48000Hz, bitrate=152298 Unknown (alac) (2.0 ch)
  48. error: avformat_seek_file failed
  49. error: avformat_seek_file failed
  50. error: Last error repeated 1 times
  51. error: avformat_seek_file failed
  52. error: avformat_seek_file failed
  53. error: Last error repeated 1 times
  54. error: avformat_seek_file failed
  55. error: avformat_seek_file failed
  56. error: Last error repeated 1 times
  57. error: avformat_seek_file failed
  58. error: avformat_seek_file failed
  59. error: Last error repeated 1 times
  60. error: avformat_seek_file failed
  61. [19:24:28] scan: 10 previews, 2048x1152, 0.060 fps, autocrop = 0/0/0/0, aspect 16:9, PAR 1:1
  62. [19:24:28] libhb: scan thread found 1 valid title(s)
  63. [19:24:28] macgui: ScanCore scan done
  64. [19:25:52] macgui: QueueCore scanning specifically for title: 1
  65. [19:25:52] CPU: Intel(R) Core(TM) i5-2467M CPU @ 1.60GHz
  66. [19:25:52]  - Intel microarchitecture Sandy Bridge
  67. [19:25:52]  - logical processor count: 4
  68. [19:25:52] hb_scan: path=/Volumes/Extreme SSD/TPU Curso/Vídeos/*Original VariableFR/KMPB1703.MOV, title_index=1
  69. udfread ERROR: ECMA 167 Volume Recognition failed
  70. disc.c:323: failed opening UDF image /Volumes/Extreme SSD/TPU Curso/Vídeos/*Original VariableFR/KMPB1703.MOV
  71. disc.c:424: error opening file BDMV/index.bdmv
  72. disc.c:424: error opening file BDMV/BACKUP/index.bdmv
  73. [19:25:52] bd: not a bd - trying as a stream/file instead
  74. libdvdnav: Using dvdnav version 6.0.0
  75. libdvdread: Encrypted DVD support unavailable.
  76. libdvdread:DVDOpenFileUDF:UDFFindFile /VIDEO_TS/VIDEO_TS.IFO failed
  77. libdvdread:DVDOpenFileUDF:UDFFindFile /VIDEO_TS/VIDEO_TS.BUP failed
  78. libdvdread: Can't open file VIDEO_TS.IFO.
  79. libdvdnav: vm: failed to read VIDEO_TS.IFO
  80. [19:25:52] dvd: not a dvd - trying as a stream/file instead
  81. Input #0, mov,mp4,m4a,3gp,3g2,mj2, from '/Volumes/Extreme SSD/TPU Curso/Vídeos/*Original VariableFR/KMPB1703.MOV':
  82.   Metadata:
  83.     major_brand     : qt  
  84.     minor_version   : 0
  85.     compatible_brands: qt  
  86.     creation_time   : 2018-11-03 14:56:36
  87.   Duration: 15:59:01.73, start: -57396.653333, bitrate: 126 kb/s
  88.     Stream #0:0(und): Video: hevc (Main) [hvc1 / 0x31637668]
  89.       yuv420p, tv, bt709/bt709/bt709
  90.       2048x1152 [PAR 1:1 DAR 16:9], 50008 kb/s, PAR 1:1 DAR 16:9
  91.       24 fps, 600 tbn (default)
  92.     Metadata:
  93.       creation_time   : 2018-11-03 14:56:36
  94.       handler_name    : Core Media Data Handler
  95.       encoder         : HEVC
  96.     Stream #0:1(und): Audio: alac [alac / 0x63616C61]
  97.       48000 Hz, stereo, s16p, 152 kb/s (default)
  98.     Metadata:
  99.       creation_time   : 2018-11-03 14:56:36
  100.       handler_name    : Core Media Data Handler
  101.     Stream #0:2(und): Data: tmcd / 0x64636D74 (default)
  102.     Metadata:
  103.       creation_time   : 2018-11-03 14:56:36
  104.       handler_name    : Core Media Data Handler
  105. [19:25:52] scan: decoding previews for title 1
  106. [19:25:52] scan: audio 0x1: alac, rate=48000Hz, bitrate=152298 Unknown (alac) (2.0 ch)
  107. error: avformat_seek_file failed
  108. error: avformat_seek_file failed
  109. error: avformat_seek_file failed
  110. error: Last error repeated 1 times
  111. error: avformat_seek_file failed
  112. error: avformat_seek_file failed
  113. error: Last error repeated 1 times
  114. error: avformat_seek_file failed
  115. error: avformat_seek_file failed
  116. error: Last error repeated 1 times
  117. error: avformat_seek_file failed
  118. error: avformat_seek_file failed
  119. error: Last error repeated 1 times
  120. error: avformat_seek_file failed
  121. [19:26:00] scan: 10 previews, 2048x1152, 0.060 fps, autocrop = 0/0/0/0, aspect 16:9, PAR 1:1
  122. [19:26:00] libhb: scan thread found 1 valid title(s)
  123. [19:26:00] macgui: QueueCore scan done
  124. [19:26:00] macgui: QueueCore started encoding KMPB1703.mp4
  125. [19:26:00] macgui: QueueCore with preset Fast 1080p30 (Modified)
  126. [19:26:00] 1 job(s) to process
  127. [19:26:00] starting job
  128. [19:26:00] decomb filter thread started for segment 1
  129. [19:26:00] decomb filter thread started for segment 0
  130. [19:26:00] decomb filter thread started for segment 2
  131. [19:26:00] decomb filter thread started for segment 3
  132. [19:26:00] decomb check thread started for segment 0
  133. [19:26:00] decomb check thread started for segment 1
  134. [19:26:00] decomb check thread started for segment 2
  135. [19:26:00] decomb check thread started for segment 3
  136. [19:26:00] mask filter thread started for segment 0
  137. [19:26:00] mask filter thread started for segment 1
  138. [19:26:00] mask filter thread started for segment 2
  139. [19:26:00] mask filter thread started for segment 3
  140. [19:26:00] mask erode thread started for segment 0
  141. [19:26:00] mask erode thread started for segment 1
  142. [19:26:00] mask erode thread started for segment 2
  143. [19:26:00] mask erode thread started for segment 3
  144. [19:26:00] mask dilate thread started for segment 0
  145. [19:26:00] mask dilate thread started for segment 1
  146. [19:26:00] mask dilate thread started for segment 2
  147. [19:26:00] mask dilate thread started for segment 3
  148. [19:26:00] yadif thread started for segment 0
  149. [19:26:00] yadif thread started for segment 1
  150. [19:26:00] yadif thread started for segment 2
  151. [19:26:00] yadif thread started for segment 3
  152. [19:26:00] work: only 1 chapter, disabling chapter markers
  153. [19:26:00] job configuration:
  154. [19:26:00]  * source
  155. [19:26:00]    + /Volumes/Extreme SSD/TPU Curso/Vídeos/*Original VariableFR/KMPB1703.MOV
  156. [19:26:00]    + title 1, chapter(s) 1 to 1
  157. [19:26:00]    + container: mov,mp4,m4a,3gp,3g2,mj2
  158. [19:26:00]    + data rate: 126 kbps
  159. [19:26:00]  * destination
  160. [19:26:00]    + /Users/Fermin/Desktop/KMPB1703.mp4
  161. [19:26:00]    + container: MPEG-4 (libavformat)
  162. [19:26:00]      + align initial A/V stream timestamps
  163. [19:26:00]  * video track
  164. [19:26:00]    + decoder: hevc
  165. [19:26:00]      + bitrate 50008 kbps
  166. [19:26:00]    + filters
  167. [19:26:00]      + Comb Detect (mode=3:spatial-metric=2:motion-thresh=1:spatial-thresh=1:filter-mode=2:block-thresh=40:block-width=16:block-height=16)
  168. [19:26:00]      + Decomb (mode=39)
  169. [19:26:00]      + Framerate Shaper (mode=1:rate=27000000/1125000)
  170. [19:26:00]        + frame rate: 0.060 fps -> constant 24.000 fps
  171. [19:26:00]      + Crop and Scale (width=1920:height=1080:crop-top=0:crop-bottom=0:crop-left=0:crop-right=0)
  172. [19:26:00]        + source: 2048 * 1152, crop (0/0/0/0): 2048 * 1152, scale: 1920 * 1080
  173. [19:26:00]    + Output geometry
  174. [19:26:00]      + storage dimensions: 1920 x 1080
  175. [19:26:00]      + pixel aspect ratio: 1 : 1
  176. [19:26:00]      + display dimensions: 1920 x 1080
  177. [19:26:00]    + encoder: H.264 (libx264)
  178. [19:26:00]      + preset:  fast
  179. [19:26:00]      + profile: main
  180. [19:26:00]      + level:   4.0
  181. [19:26:00]      + quality: 22.00 (RF)
  182. [19:26:00]  * audio track 1
  183. [19:26:00]    + decoder: Unknown (alac) (2.0 ch) (track 1, id 0x1)
  184. [19:26:00]      + bitrate: 152 kbps, samplerate: 48000 Hz
  185. [19:26:00]    + mixdown: Stereo
  186. [19:26:00]    + encoder: AAC (Apple AudioToolbox)
  187. [19:26:00]      + bitrate: 160 kbps, samplerate: 48000 Hz
  188. [19:26:00] sync: expecting 3481 video frames
  189. [19:26:00] encx264: min-keyint: 24, keyint: 240
  190. [19:26:00] encx264: encoding at constant RF 22.000000
  191. [19:26:00] encx264: unparsed options: level=4.0:ref=2:8x8dct=0:weightp=1:subme=6:vbv-bufsize=25000:vbv-maxrate=20000:rc-lookahead=30
  192. x264 [info]: using SAR=1/1
  193. x264 [info]: using cpu capabilities: MMX2 SSE2Fast SSSE3 SSE4.2 AVX
  194. x264 [info]: profile Main, level 4.0
  195. [19:26:05] sync: first pts video is 0
  196. [19:26:05] sync: "Chapter 1" (1) at frame 1 time 0
  197. [19:26:05] sync: first pts audio 0x1 is 0
  198. [19:38:21] reader: done. 1 scr changes
  199. [alac @ 0x7fa079bc3a00] invalid samples per frame: 0
  200. [19:39:03] work: average encoding speed for job is 4.636087 fps
  201. [19:39:03] comb detect: heavy 8 | light 25 | uncombed 3448 | total 3481
  202. [19:39:03] decomb: deinterlaced 8 | blended 25 | unfiltered 3448 | total 3481
  203. [19:39:03] vfr: 3876 frames output, 0 dropped and 395 duped for CFR/PFR
  204. [19:39:03] vfr: lost time: 0 (0 frames)
  205. [19:39:03] vfr: gained time: 0 (0 frames) (0 not accounted for)
  206. [19:39:03] alac-decoder done: 1699 frames, 0 decoder errors
  207. [19:39:03] hevc-decoder done: 3481 frames, 0 decoder errors
  208. [19:39:03] sync: got 3481 frames, 3481 expected
  209. [19:39:03] sync: framerate min 0.060 fps, max 25.000 fps, avg 21.551 fps
  210. x264 [info]: frame I:17    Avg QP:19.12  size:216218
  211. x264 [info]: frame P:992   Avg QP:22.64  size: 60055
  212. x264 [info]: frame B:2867  Avg QP:24.14  size: 19497
  213. x264 [info]: consecutive B-frames:  1.3%  0.0%  0.8% 97.9%
  214. x264 [info]: mb I  I16..4: 39.3%  0.0% 60.7%
  215. x264 [info]: mb P  I16..4:  4.9%  0.0%  3.8%  P16..4: 30.4% 11.9%  9.6%  0.0%  0.0%    skip:39.3%
  216. x264 [info]: mb B  I16..4:  7.0%  0.0%  0.3%  B16..8: 18.8%  6.3%  0.6%  direct:11.9%  skip:55.1%  L0:42.2% L1:36.6% BI:21.1%
  217. x264 [info]: coded y,uvDC,uvAC intra: 65.0% 12.3% 1.2% inter: 15.2% 5.8% 0.0%
  218. x264 [info]: i16 v,h,dc,p: 31% 17% 39% 13%
  219. x264 [info]: i4 v,h,dc,ddl,ddr,vr,hd,vl,hu: 21%  8% 22%  6% 11% 14%  5%  8%  3%
  220. x264 [info]: i8c dc,h,v,p: 82%  7% 10%  1%
  221. x264 [info]: Weighted P-Frames: Y:1.4% UV:0.5%
  222. x264 [info]: ref P L0: 50.5% 49.5%
  223. x264 [info]: ref B L0: 72.3% 27.7%
  224. x264 [info]: ref B L1: 91.4%  8.6%
  225. x264 [info]: kb/s:5902.00
  226. [19:39:03] mux: track 0, 3876 frames, 119145828 bytes, 5900.44 kbps, fifo 1024
  227. [19:39:03] mux: track 1, 6799 frames, 2301401 bytes, 113.97 kbps, fifo 1024
  228. [19:39:03] libhb: work result = 0
  229. [19:39:03] macgui: QueueCore work done
  230. [19:39:03] macgui: Queue Done, there are no more pending encodes
  231. [20:07:34] macgui: trying to open a folder or file
  232. [20:07:34] macgui: ScanCore scanning titles with a duration of 10 seconds or more
  233. [20:07:34] CPU: Intel(R) Core(TM) i5-2467M CPU @ 1.60GHz
  234. [20:07:34]  - Intel microarchitecture Sandy Bridge
  235. [20:07:34]  - logical processor count: 4
  236. [20:07:34] hb_scan: path=/Users/Fermin/Desktop/KMPB1703.mp4, title_index=0
  237. udfread ERROR: ECMA 167 Volume Recognition failed
  238. disc.c:323: failed opening UDF image /Users/Fermin/Desktop/KMPB1703.mp4
  239. disc.c:424: error opening file BDMV/index.bdmv
  240. disc.c:424: error opening file BDMV/BACKUP/index.bdmv
  241. [20:07:34] bd: not a bd - trying as a stream/file instead
  242. libdvdnav: Using dvdnav version 6.0.0
  243. libdvdread: Encrypted DVD support unavailable.
  244. libdvdread:DVDOpenFileUDF:UDFFindFile /VIDEO_TS/VIDEO_TS.IFO failed
  245. libdvdread:DVDOpenFileUDF:UDFFindFile /VIDEO_TS/VIDEO_TS.BUP failed
  246. libdvdread: Can't open file VIDEO_TS.IFO.
  247. libdvdnav: vm: failed to read VIDEO_TS.IFO
  248. [20:07:34] dvd: not a dvd - trying as a stream/file instead
  249. Input #0, mov,mp4,m4a,3gp,3g2,mj2, from '/Users/Fermin/Desktop/KMPB1703.mp4':
  250.   Metadata:
  251.     major_brand     : mp42
  252.     minor_version   : 512
  253.     compatible_brands: isomiso2avc1mp41
  254.     creation_time   : 2018-12-15 18:26:00
  255.     encoder         : HandBrake 1.1.2 2018090500
  256.   Duration: 00:02:41.54, start: 0.044000, bitrate: 6020 kb/s
  257.     Stream #0:0(und): Video: h264 (Main) [avc1 / 0x31637661]
  258.       yuv420p, tv, bt709/bt709/bt709
  259.       1920x1080 [PAR 1:1 DAR 16:9], 5901 kb/s
  260.       24 fps, 90k tbn (default)
  261.     Metadata:
  262.       creation_time   : 2018-12-15 18:26:00
  263.       handler_name    : VideoHandler
  264.     Stream #0:1(und): Audio: aac (LC) [mp4a / 0x6134706D]
  265.       48000 Hz, stereo, fltp, 126 kb/s (default)
  266.     Metadata:
  267.       creation_time   : 2018-12-15 18:26:00
  268.       handler_name    : Stereo
  269. [20:07:35] scan: decoding previews for title 1
  270. [20:07:35] scan: audio 0x1: aac, rate=48000Hz, bitrate=126934 Unknown (AAC) (2.0 ch)
  271. [20:07:37] scan: 10 previews, 1920x1080, 24.000 fps, autocrop = 0/0/0/0, aspect 16:9, PAR 1:1
  272. [20:07:37] libhb: scan thread found 1 valid title(s)
  273. [20:07:37] macgui: ScanCore scan done
  274. [20:08:37] macgui: trying to open a folder or file
  275. [20:08:37] macgui: ScanCore scanning titles with a duration of 10 seconds or more
  276. [20:08:37] CPU: Intel(R) Core(TM) i5-2467M CPU @ 1.60GHz
  277. [20:08:37]  - Intel microarchitecture Sandy Bridge
  278. [20:08:37]  - logical processor count: 4
  279. [20:08:37] hb_scan: path=/Volumes/Extreme SSD/TPU Curso/*Vídeos/*Original VariableFR/BYEG2467.MOV, title_index=0
  280. udfread ERROR: ECMA 167 Volume Recognition failed
  281. disc.c:323: failed opening UDF image /Volumes/Extreme SSD/TPU Curso/*Vídeos/*Original VariableFR/BYEG2467.MOV
  282. disc.c:424: error opening file BDMV/index.bdmv
  283. disc.c:424: error opening file BDMV/BACKUP/index.bdmv
  284. [20:08:37] bd: not a bd - trying as a stream/file instead
  285. libdvdnav: Using dvdnav version 6.0.0
  286. libdvdread: Encrypted DVD support unavailable.
  287. libdvdread:DVDOpenFileUDF:UDFFindFile /VIDEO_TS/VIDEO_TS.IFO failed
  288. libdvdread:DVDOpenFileUDF:UDFFindFile /VIDEO_TS/VIDEO_TS.BUP failed
  289. libdvdread: Can't open file VIDEO_TS.IFO.
  290. libdvdnav: vm: failed to read VIDEO_TS.IFO
  291. [20:08:37] dvd: not a dvd - trying as a stream/file instead
  292. Input #0, mov,mp4,m4a,3gp,3g2,mj2, from '/Volumes/Extreme SSD/TPU Curso/*Vídeos/*Original VariableFR/BYEG2467.MOV':
  293.   Metadata:
  294.     major_brand     : qt  
  295.     minor_version   : 0
  296.     compatible_brands: qt  
  297.     creation_time   : 2018-11-02 18:37:33
  298.   Duration: 19:39:30.89, start: -70653.545000, bitrate: 83 kb/s
  299.     Stream #0:0(und): Video: hevc (Main) [hvc1 / 0x31637668]
  300.       yuv420p, tv, bt709/bt709/bt709
  301.       2048x1152 [PAR 1:1 DAR 16:9], 50055 kb/s, PAR 1:1 DAR 16:9
  302.       24 fps, 600 tbn (default)
  303.     Metadata:
  304.       creation_time   : 2018-11-02 18:37:33
  305.       handler_name    : Core Media Data Handler
  306.       encoder         : HEVC
  307.     Stream #0:1(und): Audio: aac (LC) [mp4a / 0x6134706D]
  308.       48000 Hz, stereo, fltp, 108 kb/s (default)
  309.     Metadata:
  310.       creation_time   : 2018-11-02 18:37:33
  311.       handler_name    : Core Media Data Handler
  312.     Stream #0:2(und): Data: tmcd / 0x64636D74 (default)
  313.     Metadata:
  314.       creation_time   : 2018-11-02 18:37:33
  315.       handler_name    : Core Media Data Handler
  316. [20:08:37] scan: decoding previews for title 1
  317. [20:08:37] scan: audio 0x1: aac, rate=48000Hz, bitrate=108400 Unknown (AAC) (2.0 ch)
  318. error: avformat_seek_file failed
  319. error: avformat_seek_file failed
  320. error: avformat_seek_file failed
  321. error: avformat_seek_file failed
  322. error: avformat_seek_file failed
  323. error: Last error repeated 1 times
  324. error: avformat_seek_file failed
  325. error: avformat_seek_file failed
  326. error: Last error repeated 1 times
  327. error: avformat_seek_file failed
  328. error: avformat_seek_file failed
  329. error: avformat_seek_file failed
  330. error: avformat_seek_file failed
  331. error: avformat_seek_file failed
  332. error: avformat_seek_file failed
  333. error: avformat_seek_file failed
  334. [20:08:51] scan: 10 previews, 2048x1152, 0.040 fps, autocrop = 0/0/0/0, aspect 16:9, PAR 1:1
  335. [20:08:51] libhb: scan thread found 1 valid title(s)
  336. [20:08:51] macgui: ScanCore scan done
  337. [20:10:08] macgui: trying to open a folder or file
  338. [20:10:08] macgui: ScanCore scanning titles with a duration of 10 seconds or more
  339. [20:10:08] CPU: Intel(R) Core(TM) i5-2467M CPU @ 1.60GHz
  340. [20:10:08]  - Intel microarchitecture Sandy Bridge
  341. [20:10:08]  - logical processor count: 4
  342. [20:10:08] hb_scan: path=/Volumes/HD_1/*TPU - videos curso/3. Visión correcta/Der./KMPB1703.MOV, title_index=0
  343. udfread ERROR: ECMA 167 Volume Recognition failed
  344. disc.c:323: failed opening UDF image /Volumes/HD_1/*TPU - videos curso/3. Visión correcta/Der./KMPB1703.MOV
  345. disc.c:424: error opening file BDMV/index.bdmv
  346. disc.c:424: error opening file BDMV/BACKUP/index.bdmv
  347. [20:10:08] bd: not a bd - trying as a stream/file instead
  348. libdvdnav: Using dvdnav version 6.0.0
  349. libdvdread: Encrypted DVD support unavailable.
  350. libdvdread:DVDOpenFileUDF:UDFFindFile /VIDEO_TS/VIDEO_TS.IFO failed
  351. libdvdread:DVDOpenFileUDF:UDFFindFile /VIDEO_TS/VIDEO_TS.BUP failed
  352. libdvdread: Can't open file VIDEO_TS.IFO.
  353. libdvdnav: vm: failed to read VIDEO_TS.IFO
  354. [20:10:08] dvd: not a dvd - trying as a stream/file instead
  355. Input #0, mov,mp4,m4a,3gp,3g2,mj2, from '/Volumes/HD_1/*TPU - videos curso/3. Visión correcta/Der./KMPB1703.MOV':
  356.   Metadata:
  357.     major_brand     : qt  
  358.     minor_version   : 0
  359.     compatible_brands: qt  
  360.     creation_time   : 2018-11-03 14:56:36
  361.   Duration: 15:59:01.73, start: -57396.653333, bitrate: 126 kb/s
  362.     Stream #0:0(und): Video: hevc (Main) [hvc1 / 0x31637668]
  363.       yuv420p, tv, bt709/bt709/bt709
  364.       2048x1152 [PAR 1:1 DAR 16:9], 50008 kb/s, PAR 1:1 DAR 16:9
  365.       24 fps, 600 tbn (default)
  366.     Metadata:
  367.       creation_time   : 2018-11-03 14:56:36
  368.       handler_name    : Core Media Data Handler
  369.       encoder         : HEVC
  370.     Stream #0:1(und): Audio: alac [alac / 0x63616C61]
  371.       48000 Hz, stereo, s16p, 152 kb/s (default)
  372.     Metadata:
  373.       creation_time   : 2018-11-03 14:56:36
  374.       handler_name    : Core Media Data Handler
  375.     Stream #0:2(und): Data: tmcd / 0x64636D74 (default)
  376.     Metadata:
  377.       creation_time   : 2018-11-03 14:56:36
  378.       handler_name    : Core Media Data Handler
  379. [20:10:09] scan: decoding previews for title 1
  380. [20:10:09] scan: audio 0x1: alac, rate=48000Hz, bitrate=152298 Unknown (alac) (2.0 ch)
  381. error: avformat_seek_file failed
  382. error: avformat_seek_file failed
  383. error: avformat_seek_file failed
  384. error: Last error repeated 1 times
  385. error: avformat_seek_file failed
  386. error: avformat_seek_file failed
  387. error: Last error repeated 1 times
  388. error: avformat_seek_file failed
  389. error: avformat_seek_file failed
  390. error: Last error repeated 1 times
  391. error: avformat_seek_file failed
  392. error: avformat_seek_file failed
  393. error: Last error repeated 1 times
  394. error: avformat_seek_file failed
  395. [20:10:18] scan: 10 previews, 2048x1152, 0.060 fps, autocrop = 0/0/0/0, aspect 16:9, PAR 1:1
  396. [20:10:18] libhb: scan thread found 1 valid title(s)
  397. [20:10:18] macgui: ScanCore scan done
  398. [20:12:27] macgui: trying to open a folder or file
  399. [20:12:27] macgui: ScanCore scanning titles with a duration of 10 seconds or more
  400. [20:12:27] CPU: Intel(R) Core(TM) i5-2467M CPU @ 1.60GHz
  401. [20:12:27]  - Intel microarchitecture Sandy Bridge
  402. [20:12:27]  - logical processor count: 4
  403. [20:12:27] hb_scan: path=/Volumes/Extreme SSD/TPU Curso/*Vídeos/*Original VariableFR/KMPB1703.MOV, title_index=0
  404. udfread ERROR: ECMA 167 Volume Recognition failed
  405. disc.c:323: failed opening UDF image /Volumes/Extreme SSD/TPU Curso/*Vídeos/*Original VariableFR/KMPB1703.MOV
  406. disc.c:424: error opening file BDMV/index.bdmv
  407. disc.c:424: error opening file BDMV/BACKUP/index.bdmv
  408. [20:12:27] bd: not a bd - trying as a stream/file instead
  409. libdvdnav: Using dvdnav version 6.0.0
  410. libdvdread: Encrypted DVD support unavailable.
  411. libdvdread:DVDOpenFileUDF:UDFFindFile /VIDEO_TS/VIDEO_TS.IFO failed
  412. libdvdread:DVDOpenFileUDF:UDFFindFile /VIDEO_TS/VIDEO_TS.BUP failed
  413. libdvdread: Can't open file VIDEO_TS.IFO.
  414. libdvdnav: vm: failed to read VIDEO_TS.IFO
  415. [20:12:27] dvd: not a dvd - trying as a stream/file instead
  416. Input #0, mov,mp4,m4a,3gp,3g2,mj2, from '/Volumes/Extreme SSD/TPU Curso/*Vídeos/*Original VariableFR/KMPB1703.MOV':
  417.   Metadata:
  418.     major_brand     : qt  
  419.     minor_version   : 0
  420.     compatible_brands: qt  
  421.     creation_time   : 2018-11-03 14:56:36
  422.   Duration: 15:59:01.73, start: -57396.653333, bitrate: 126 kb/s
  423.     Stream #0:0(und): Video: hevc (Main) [hvc1 / 0x31637668]
  424.       yuv420p, tv, bt709/bt709/bt709
  425.       2048x1152 [PAR 1:1 DAR 16:9], 50008 kb/s, PAR 1:1 DAR 16:9
  426.       24 fps, 600 tbn (default)
  427.     Metadata:
  428.       creation_time   : 2018-11-03 14:56:36
  429.       handler_name    : Core Media Data Handler
  430.       encoder         : HEVC
  431.     Stream #0:1(und): Audio: alac [alac / 0x63616C61]
  432.       48000 Hz, stereo, s16p, 152 kb/s (default)
  433.     Metadata:
  434.       creation_time   : 2018-11-03 14:56:36
  435.       handler_name    : Core Media Data Handler
  436.     Stream #0:2(und): Data: tmcd / 0x64636D74 (default)
  437.     Metadata:
  438.       creation_time   : 2018-11-03 14:56:36
  439.       handler_name    : Core Media Data Handler
  440. [20:12:27] scan: decoding previews for title 1
  441. [20:12:28] scan: audio 0x1: alac, rate=48000Hz, bitrate=152298 Unknown (alac) (2.0 ch)
  442. error: avformat_seek_file failed
  443. error: avformat_seek_file failed
  444. error: avformat_seek_file failed
  445. error: Last error repeated 1 times
  446. error: avformat_seek_file failed
  447. error: avformat_seek_file failed
  448. error: Last error repeated 1 times
  449. error: avformat_seek_file failed
  450. error: avformat_seek_file failed
  451. error: Last error repeated 1 times
  452. error: avformat_seek_file failed
  453. error: avformat_seek_file failed
  454. error: avformat_seek_file failed
  455. error: avformat_seek_file failed
  456. error: avformat_seek_file failed
  457. [20:12:39] scan: 10 previews, 2048x1152, 0.060 fps, autocrop = 0/0/0/0, aspect 16:9, PAR 1:1
  458. [20:12:39] libhb: scan thread found 1 valid title(s)
  459. [20:12:39] macgui: ScanCore scan done
  460. [20:45:04] macgui: QueueCore scanning specifically for title: 1
  461. [20:45:04] CPU: Intel(R) Core(TM) i5-2467M CPU @ 1.60GHz
  462. [20:45:04]  - Intel microarchitecture Sandy Bridge
  463. [20:45:04]  - logical processor count: 4
  464. [20:45:04] hb_scan: path=/Volumes/Extreme SSD/TPU Curso/*Vídeos/*Original VariableFR/KMPB1703.MOV, title_index=1
  465. udfread ERROR: ECMA 167 Volume Recognition failed
  466. disc.c:323: failed opening UDF image /Volumes/Extreme SSD/TPU Curso/*Vídeos/*Original VariableFR/KMPB1703.MOV
  467. disc.c:424: error opening file BDMV/index.bdmv
  468. disc.c:424: error opening file BDMV/BACKUP/index.bdmv
  469. [20:45:04] bd: not a bd - trying as a stream/file instead
  470. libdvdnav: Using dvdnav version 6.0.0
  471. libdvdread: Encrypted DVD support unavailable.
  472. libdvdread:DVDOpenFileUDF:UDFFindFile /VIDEO_TS/VIDEO_TS.IFO failed
  473. libdvdread:DVDOpenFileUDF:UDFFindFile /VIDEO_TS/VIDEO_TS.BUP failed
  474. libdvdread: Can't open file VIDEO_TS.IFO.
  475. libdvdnav: vm: failed to read VIDEO_TS.IFO
  476. [20:45:04] dvd: not a dvd - trying as a stream/file instead
  477. Input #0, mov,mp4,m4a,3gp,3g2,mj2, from '/Volumes/Extreme SSD/TPU Curso/*Vídeos/*Original VariableFR/KMPB1703.MOV':
  478.   Metadata:
  479.     major_brand     : qt  
  480.     minor_version   : 0
  481.     compatible_brands: qt  
  482.     creation_time   : 2018-11-03 14:56:36
  483.   Duration: 15:59:01.73, start: -57396.653333, bitrate: 126 kb/s
  484.     Stream #0:0(und): Video: hevc (Main) [hvc1 / 0x31637668]
  485.       yuv420p, tv, bt709/bt709/bt709
  486.       2048x1152 [PAR 1:1 DAR 16:9], 50008 kb/s, PAR 1:1 DAR 16:9
  487.       24 fps, 600 tbn (default)
  488.     Metadata:
  489.       creation_time   : 2018-11-03 14:56:36
  490.       handler_name    : Core Media Data Handler
  491.       encoder         : HEVC
  492.     Stream #0:1(und): Audio: alac [alac / 0x63616C61]
  493.       48000 Hz, stereo, s16p, 152 kb/s (default)
  494.     Metadata:
  495.       creation_time   : 2018-11-03 14:56:36
  496.       handler_name    : Core Media Data Handler
  497.     Stream #0:2(und): Data: tmcd / 0x64636D74 (default)
  498.     Metadata:
  499.       creation_time   : 2018-11-03 14:56:36
  500.       handler_name    : Core Media Data Handler
  501. [20:45:04] scan: decoding previews for title 1
  502. [20:45:04] scan: audio 0x1: alac, rate=48000Hz, bitrate=152298 Unknown (alac) (2.0 ch)
  503. error: avformat_seek_file failed
  504. error: avformat_seek_file failed
  505. error: avformat_seek_file failed
  506. error: Last error repeated 1 times
  507. error: avformat_seek_file failed
  508. error: avformat_seek_file failed
  509. error: Last error repeated 1 times
  510. error: avformat_seek_file failed
  511. error: avformat_seek_file failed
  512. error: Last error repeated 1 times
  513. error: avformat_seek_file failed
  514. error: avformat_seek_file failed
  515. error: Last error repeated 1 times
  516. error: avformat_seek_file failed
  517. [20:45:14] scan: 10 previews, 2048x1152, 0.060 fps, autocrop = 0/0/0/0, aspect 16:9, PAR 1:1
  518. [20:45:14] libhb: scan thread found 1 valid title(s)
  519. [20:45:14] macgui: QueueCore scan done
  520. [20:45:14] macgui: QueueCore started encoding KMPB1703(TPU2).mp4
  521. [20:45:14] macgui: QueueCore with preset CFR 2 (TPU)
  522. [20:45:14] 1 job(s) to process
  523. [20:45:14] starting job
  524. [20:45:14] decomb filter thread started for segment 1
  525. [20:45:14] decomb filter thread started for segment 0
  526. [20:45:14] decomb filter thread started for segment 2
  527. [20:45:14] decomb filter thread started for segment 3
  528. [20:45:14] decomb check thread started for segment 1
  529. [20:45:14] decomb check thread started for segment 0
  530. [20:45:14] decomb check thread started for segment 2
  531. [20:45:14] decomb check thread started for segment 3
  532. [20:45:14] mask filter thread started for segment 0
  533. [20:45:14] mask filter thread started for segment 1
  534. [20:45:14] mask filter thread started for segment 2
  535. [20:45:14] mask filter thread started for segment 3
  536. [20:45:14] mask erode thread started for segment 0
  537. [20:45:14] mask erode thread started for segment 1
  538. [20:45:14] mask erode thread started for segment 2
  539. [20:45:14] mask erode thread started for segment 3
  540. [20:45:14] mask dilate thread started for segment 0
  541. [20:45:14] mask dilate thread started for segment 1
  542. [20:45:14] mask dilate thread started for segment 2
  543. [20:45:14] mask dilate thread started for segment 3
  544. [20:45:14] yadif thread started for segment 0
  545. [20:45:14] yadif thread started for segment 1
  546. [20:45:14] yadif thread started for segment 2
  547. [20:45:14] yadif thread started for segment 3
  548. [20:45:14] work: only 1 chapter, disabling chapter markers
  549. [20:45:14] job configuration:
  550. [20:45:14]  * source
  551. [20:45:14]    + /Volumes/Extreme SSD/TPU Curso/*Vídeos/*Original VariableFR/KMPB1703.MOV
  552. [20:45:14]    + title 1, chapter(s) 1 to 1
  553. [20:45:14]    + container: mov,mp4,m4a,3gp,3g2,mj2
  554. [20:45:14]    + data rate: 126 kbps
  555. [20:45:14]  * destination
  556. [20:45:14]    + /Users/Fermin/Desktop/KMPB1703(TPU2).mp4
  557. [20:45:14]    + container: MPEG-4 (libavformat)
  558. [20:45:14]  * video track
  559. [20:45:14]    + decoder: hevc
  560. [20:45:14]      + bitrate 50008 kbps
  561. [20:45:14]    + filters
  562. [20:45:14]      + Comb Detect (mode=3:spatial-metric=2:motion-thresh=1:spatial-thresh=1:filter-mode=2:block-thresh=40:block-width=16:block-height=16)
  563. [20:45:14]      + Decomb (mode=39)
  564. [20:45:14]      + Framerate Shaper (mode=1:rate=27000000/1125000)
  565. [20:45:14]        + frame rate: 0.060 fps -> constant 24.000 fps
  566. [20:45:14]      + Crop and Scale (width=2048:height=1152:crop-top=0:crop-bottom=0:crop-left=0:crop-right=0)
  567. [20:45:14]        + source: 2048 * 1152, crop (0/0/0/0): 2048 * 1152, scale: 2048 * 1152
  568. [20:45:14]    + Output geometry
  569. [20:45:14]      + storage dimensions: 2048 x 1152
  570. [20:45:14]      + pixel aspect ratio: 1 : 1
  571. [20:45:14]      + display dimensions: 2048 x 1152
  572. [20:45:14]    + encoder: H.264 (libx264)
  573. [20:45:14]      + preset:  medium
  574. [20:45:14]      + profile: high
  575. [20:45:14]      + level:   4.1
  576. [20:45:14]      + bitrate: 2500 kbps, pass: 0
  577. [20:45:14]  * audio track 1
  578. [20:45:14]    + decoder: Unknown (alac) (2.0 ch) (track 1, id 0x1)
  579. [20:45:14]      + bitrate: 152 kbps, samplerate: 48000 Hz
  580. [20:45:14]    + mixdown: Stereo
  581. [20:45:14]    + encoder: AAC (Apple AudioToolbox)
  582. [20:45:14]      + bitrate: 160 kbps, samplerate: 48000 Hz
  583. [20:45:14]  * audio track 2
  584. [20:45:14]    + decoder: Unknown (alac) (2.0 ch) (track 1, id 0x1)
  585. [20:45:14]      + bitrate: 152 kbps, samplerate: 48000 Hz
  586. [20:45:14]    + mixdown: Stereo
  587. [20:45:14]    + encoder: AC3 (libavcodec)
  588. [20:45:14]      + bitrate: 160 kbps, samplerate: 48000 Hz
  589. [20:45:14] sync: expecting 3481 video frames
  590. [20:45:14] encx264: min-keyint: 24, keyint: 240
  591. [20:45:14] encx264: encoding at average bitrate 2500
  592. [20:45:14] apply_h264_level [warning]: frame size (2048x1152, 9216 macroblocks) too high for level 4.1 (max. 8192 macroblocks)
  593. [20:45:14] encx264: unparsed options: level=4.1:b-pyramid=none:vbv-bufsize=78125:vbv-maxrate=62500
  594. x264 [info]: using SAR=1/1
  595. x264 [warning]: frame MB size (128x72) > level limit (8192)
  596. x264 [info]: using cpu capabilities: MMX2 SSE2Fast SSSE3 SSE4.2 AVX
  597. x264 [info]: profile High, level 4.1
  598. [20:45:19] sync: first pts video is 0
  599. [20:45:19] sync: "Chapter 1" (1) at frame 1 time 0
  600. [20:45:20] sync: first pts audio 0x1 is 900
  601. [20:45:20] sync: first pts audio 0x1 is 900
  602. [20:50:02] macgui: QueueCore encode canceled
  603. [20:50:02] work: average encoding speed for job is 4.242677 fps
  604. [20:50:02] comb detect: heavy 8 | light 18 | uncombed 1161 | total 1187
  605. [20:50:03] decomb: deinterlaced 8 | blended 18 | unfiltered 1156 | total 1182
  606. [20:50:03] vfr: 1178 frames output, 0 dropped and 0 duped for CFR/PFR
  607. [20:50:03] vfr: lost time: 0 (0 frames)
  608. [20:50:03] vfr: gained time: 0 (0 frames) (0 not accounted for)
  609. [20:50:03] alac-decoder done: 623 frames, 0 decoder errors
  610. [20:50:03] alac-decoder done: 623 frames, 0 decoder errors
  611. [20:50:03] hevc-decoder done: 1260 frames, 0 decoder errors
  612. [20:50:03] sync: got 1219 frames, 3481 expected
  613. [20:50:03] sync: framerate min 24.000 fps, max 25.000 fps, avg 24.002 fps
  614. x264 [info]: frame I:6     Avg QP:25.23  size: 93241
  615. x264 [info]: frame P:294   Avg QP:28.98  size: 30321
  616. x264 [info]: frame B:828   Avg QP:30.51  size:  6557
  617. x264 [info]: consecutive B-frames:  1.9%  0.4%  0.5% 97.3%
  618. x264 [info]: mb I  I16..4: 26.8% 60.9% 12.3%
  619. x264 [info]: mb P  I16..4:  0.7%  3.2%  0.8%  P16..4: 18.1%  6.6%  4.8%  0.0%  0.0%    skip:65.8%
  620. x264 [info]: mb B  I16..4:  0.2%  0.4%  0.0%  B16..8: 26.6%  1.7%  0.4%  direct: 0.7%  skip:70.0%  L0:44.2% L1:51.6% BI: 4.2%
  621. x264 [info]: final ratefactor: 27.00
  622. x264 [info]: 8x8 transform intra:65.6% inter:72.3%
  623. x264 [info]: coded y,uvDC,uvAC intra: 46.4% 16.5% 1.1% inter: 6.9% 0.9% 0.0%
  624. x264 [info]: i16 v,h,dc,p: 43% 27% 10% 20%
  625. x264 [info]: i8 v,h,dc,ddl,ddr,vr,hd,vl,hu: 28% 12% 27%  4%  7% 10%  4%  6%  3%
  626. x264 [info]: i4 v,h,dc,ddl,ddr,vr,hd,vl,hu: 24%  9% 16%  5% 12% 17%  5%  8%  3%
  627. x264 [info]: i8c dc,h,v,p: 78%  9% 13%  1%
  628. x264 [info]: Weighted P-Frames: Y:3.4% UV:1.4%
  629. x264 [info]: ref P L0: 58.5% 17.4% 15.4%  8.5%  0.2%
  630. x264 [info]: ref B L0: 73.2% 26.8%
  631. x264 [info]: kb/s:2536.63
  632. [20:50:03] mux: track 0, 1128 frames, 14902442 bytes, 2354.95 kbps, fifo 1024
  633. [20:50:03] mux: track 1, 2368 frames, 782400 bytes, 123.64 kbps, fifo 2048
  634. [20:50:03] mux: track 2, 1581 frames, 1011840 bytes, 159.90 kbps, fifo 2048
  635. [20:50:03] libhb: work result = 1
  636. [20:50:04] macgui: QueueCore work canceled
  637. [20:50:04] macgui: Queue manually stopped
  638. [20:55:31] macgui: QueueCore scanning specifically for title: 1
  639. [20:55:31] CPU: Intel(R) Core(TM) i5-2467M CPU @ 1.60GHz
  640. [20:55:31]  - Intel microarchitecture Sandy Bridge
  641. [20:55:31]  - logical processor count: 4
  642. [20:55:31] hb_scan: path=/Volumes/Extreme SSD/TPU Curso/*Vídeos/*Original VariableFR/KMPB1703.MOV, title_index=1
  643. udfread ERROR: ECMA 167 Volume Recognition failed
  644. disc.c:323: failed opening UDF image /Volumes/Extreme SSD/TPU Curso/*Vídeos/*Original VariableFR/KMPB1703.MOV
  645. disc.c:424: error opening file BDMV/index.bdmv
  646. disc.c:424: error opening file BDMV/BACKUP/index.bdmv
  647. [20:55:31] bd: not a bd - trying as a stream/file instead
  648. libdvdnav: Using dvdnav version 6.0.0
  649. libdvdread: Encrypted DVD support unavailable.
  650. libdvdread:DVDOpenFileUDF:UDFFindFile /VIDEO_TS/VIDEO_TS.IFO failed
  651. libdvdread:DVDOpenFileUDF:UDFFindFile /VIDEO_TS/VIDEO_TS.BUP failed
  652. libdvdread: Can't open file VIDEO_TS.IFO.
  653. libdvdnav: vm: failed to read VIDEO_TS.IFO
  654. [20:55:31] dvd: not a dvd - trying as a stream/file instead
  655. Input #0, mov,mp4,m4a,3gp,3g2,mj2, from '/Volumes/Extreme SSD/TPU Curso/*Vídeos/*Original VariableFR/KMPB1703.MOV':
  656.   Metadata:
  657.     major_brand     : qt  
  658.     minor_version   : 0
  659.     compatible_brands: qt  
  660.     creation_time   : 2018-11-03 14:56:36
  661.   Duration: 15:59:01.73, start: -57396.653333, bitrate: 126 kb/s
  662.     Stream #0:0(und): Video: hevc (Main) [hvc1 / 0x31637668]
  663.       yuv420p, tv, bt709/bt709/bt709
  664.       2048x1152 [PAR 1:1 DAR 16:9], 50008 kb/s, PAR 1:1 DAR 16:9
  665.       24 fps, 600 tbn (default)
  666.     Metadata:
  667.       creation_time   : 2018-11-03 14:56:36
  668.       handler_name    : Core Media Data Handler
  669.       encoder         : HEVC
  670.     Stream #0:1(und): Audio: alac [alac / 0x63616C61]
  671.       48000 Hz, stereo, s16p, 152 kb/s (default)
  672.     Metadata:
  673.       creation_time   : 2018-11-03 14:56:36
  674.       handler_name    : Core Media Data Handler
  675.     Stream #0:2(und): Data: tmcd / 0x64636D74 (default)
  676.     Metadata:
  677.       creation_time   : 2018-11-03 14:56:36
  678.       handler_name    : Core Media Data Handler
  679. [20:55:31] scan: decoding previews for title 1
  680. [20:55:32] scan: audio 0x1: alac, rate=48000Hz, bitrate=152298 Unknown (alac) (2.0 ch)
  681. error: avformat_seek_file failed
  682. error: avformat_seek_file failed
  683. error: avformat_seek_file failed
  684. error: Last error repeated 1 times
  685. error: avformat_seek_file failed
  686. error: avformat_seek_file failed
  687. error: Last error repeated 1 times
  688. error: avformat_seek_file failed
  689. error: avformat_seek_file failed
  690. error: Last error repeated 1 times
  691. error: avformat_seek_file failed
  692. error: avformat_seek_file failed
  693. error: Last error repeated 1 times
  694. error: avformat_seek_file failed
  695. [20:55:40] scan: 10 previews, 2048x1152, 0.060 fps, autocrop = 0/0/0/0, aspect 16:9, PAR 1:1
  696. [20:55:40] libhb: scan thread found 1 valid title(s)
  697. [20:55:40] macgui: QueueCore scan done
  698. [20:55:40] macgui: QueueCore started encoding KMPB1703(veryfast730).mp4
  699. [20:55:40] 1 job(s) to process
  700. [20:55:40] macgui: QueueCore with preset Very Fast 720p30 (Modified)
  701. [20:55:40] starting job
  702. [20:55:40] decomb filter thread started for segment 0
  703. [20:55:40] decomb filter thread started for segment 2
  704. [20:55:40] decomb filter thread started for segment 1
  705. [20:55:40] decomb filter thread started for segment 3
  706. [20:55:40] decomb check thread started for segment 0
  707. [20:55:40] decomb check thread started for segment 1
  708. [20:55:40] decomb check thread started for segment 2
  709. [20:55:40] decomb check thread started for segment 3
  710. [20:55:40] yadif thread started for segment 0
  711. [20:55:40] yadif thread started for segment 1
  712. [20:55:40] yadif thread started for segment 2
  713. [20:55:40] yadif thread started for segment 3
  714. [20:55:40] work: only 1 chapter, disabling chapter markers
  715. [20:55:40] job configuration:
  716. [20:55:40]  * source
  717. [20:55:40]    + /Volumes/Extreme SSD/TPU Curso/*Vídeos/*Original VariableFR/KMPB1703.MOV
  718. [20:55:40]    + title 1, chapter(s) 1 to 1
  719. [20:55:40]    + container: mov,mp4,m4a,3gp,3g2,mj2
  720. [20:55:40]    + data rate: 126 kbps
  721. [20:55:40]  * destination
  722. [20:55:40]    + /Users/Fermin/Desktop/KMPB1703(veryfast730).mp4
  723. [20:55:40]    + container: MPEG-4 (libavformat)
  724. [20:55:40]      + align initial A/V stream timestamps
  725. [20:55:40]  * video track
  726. [20:55:40]    + decoder: hevc
  727. [20:55:40]      + bitrate 50008 kbps
  728. [20:55:40]    + filters
  729. [20:55:40]      + Comb Detect (mode=0:spatial-metric=2:motion-thresh=2:spatial-thresh=3:filter-mode=1:block-thresh=80:block-width=16:block-height=16)
  730. [20:55:40]      + Decomb (mode=39)
  731. [20:55:40]      + Framerate Shaper (mode=1:rate=27000000/1125000)
  732. [20:55:40]        + frame rate: 0.060 fps -> constant 24.000 fps
  733. [20:55:40]      + Crop and Scale (width=1280:height=720:crop-top=0:crop-bottom=0:crop-left=0:crop-right=0)
  734. [20:55:40]        + source: 2048 * 1152, crop (0/0/0/0): 2048 * 1152, scale: 1280 * 720
  735. [20:55:40]    + Output geometry
  736. [20:55:40]      + storage dimensions: 1280 x 720
  737. [20:55:40]      + pixel aspect ratio: 1 : 1
  738. [20:55:40]      + display dimensions: 1280 x 720
  739. [20:55:40]    + encoder: H.264 (libx264)
  740. [20:55:40]      + preset:  veryfast
  741. [20:55:40]      + profile: main
  742. [20:55:40]      + level:   3.1
  743. [20:55:40]      + quality: 23.00 (RF)
  744. [20:55:40]  * audio track 1
  745. [20:55:40]    + decoder: Unknown (alac) (2.0 ch) (track 1, id 0x1)
  746. [20:55:40]      + bitrate: 152 kbps, samplerate: 48000 Hz
  747. [20:55:40]    + mixdown: Stereo
  748. [20:55:40]    + encoder: AAC (Apple AudioToolbox)
  749. [20:55:40]      + bitrate: 160 kbps, samplerate: 48000 Hz
  750. [20:55:40] sync: expecting 3481 video frames
  751. [20:55:40] encx264: min-keyint: 24, keyint: 240
  752. [20:55:40] encx264: encoding at constant RF 23.000000
  753. [20:55:40] encx264: unparsed options: level=3.1:ref=1:8x8dct=0:weightp=1:subme=2:mixed-refs=0:trellis=0:vbv-bufsize=14000:vbv-maxrate=14000:rc-lookahead=10
  754. x264 [info]: using SAR=1/1
  755. x264 [info]: using cpu capabilities: MMX2 SSE2Fast SSSE3 SSE4.2 AVX
  756. x264 [info]: profile Main, level 3.1
  757. [20:55:44] sync: first pts video is 0
  758. [20:55:44] sync: "Chapter 1" (1) at frame 1 time 0
  759. [20:55:44] sync: first pts audio 0x1 is 0
  760. [21:01:30] reader: done. 1 scr changes
  761. [21:01:47] work: average encoding speed for job is 9.889682 fps
  762. [21:01:48] comb detect: heavy 0 | light 61 | uncombed 3420 | total 3481
  763. [21:01:48] decomb: deinterlaced 0 | blended 61 | unfiltered 3420 | total 3481
  764. [21:01:48] vfr: 3876 frames output, 0 dropped and 395 duped for CFR/PFR
  765. [21:01:48] vfr: lost time: 0 (0 frames)
  766. [21:01:48] vfr: gained time: 0 (0 frames) (0 not accounted for)
  767. [21:01:48] alac-decoder done: 1699 frames, 0 decoder errors
  768. [21:01:48] hevc-decoder done: 3481 frames, 0 decoder errors
  769. [21:01:48] sync: got 3481 frames, 3481 expected
  770. [21:01:48] sync: framerate min 0.060 fps, max 25.000 fps, avg 21.551 fps
  771. x264 [info]: frame I:17    Avg QP:20.60  size: 83927
  772. x264 [info]: frame P:969   Avg QP:23.60  size: 16999
  773. x264 [info]: frame B:2890  Avg QP:25.87  size:  3185
  774. x264 [info]: consecutive B-frames:  0.4%  0.0%  1.3% 98.2%
  775. x264 [info]: mb I  I16..4: 61.2%  0.0% 38.8%
  776. x264 [info]: mb P  I16..4:  5.1%  0.0%  2.2%  P16..4: 14.3%  5.5%  5.1%  0.0%  0.0%    skip:67.8%
  777. x264 [info]: mb B  I16..4:  0.9%  0.0%  0.1%  B16..8:  5.5%  2.7%  0.5%  direct: 3.6%  skip:86.8%  L0:23.8% L1:33.6% BI:42.7%
  778. x264 [info]: coded y,uvDC,uvAC intra: 42.0% 15.1% 2.3% inter: 6.2% 0.8% 0.0%
  779. x264 [info]: i16 v,h,dc,p: 48% 21% 19% 11%
  780. x264 [info]: i4 v,h,dc,ddl,ddr,vr,hd,vl,hu: 25% 10% 15%  6% 10% 16%  6% 10%  4%
  781. x264 [info]: i8c dc,h,v,p: 74%  9% 16%  1%
  782. x264 [info]: Weighted P-Frames: Y:2.0% UV:0.3%
  783. x264 [info]: kb/s:1342.64
  784. [21:01:48] mux: track 0, 3876 frames, 27103817 bytes, 1342.26 kbps, fifo 2048
  785. [21:01:48] mux: track 1, 6799 frames, 2301401 bytes, 113.97 kbps, fifo 4096
  786. [21:01:48] libhb: work result = 0
  787. [21:01:48] macgui: QueueCore work done
  788. [21:01:48] macgui: Queue Done, there are no more pending encodes
  789. [21:22:35] macgui: QueueCore scanning specifically for title: 1
  790. [21:22:35] CPU: Intel(R) Core(TM) i5-2467M CPU @ 1.60GHz
  791. [21:22:35]  - Intel microarchitecture Sandy Bridge
  792. [21:22:35]  - logical processor count: 4
  793. [21:22:35] hb_scan: path=/Volumes/Extreme SSD/TPU Curso/*Vídeos/*Original VariableFR/KMPB1703.MOV, title_index=1
  794. udfread ERROR: ECMA 167 Volume Recognition failed
  795. disc.c:323: failed opening UDF image /Volumes/Extreme SSD/TPU Curso/*Vídeos/*Original VariableFR/KMPB1703.MOV
  796. disc.c:424: error opening file BDMV/index.bdmv
  797. disc.c:424: error opening file BDMV/BACKUP/index.bdmv
  798. [21:22:35] bd: not a bd - trying as a stream/file instead
  799. libdvdnav: Using dvdnav version 6.0.0
  800. libdvdread: Encrypted DVD support unavailable.
  801. libdvdread:DVDOpenFileUDF:UDFFindFile /VIDEO_TS/VIDEO_TS.IFO failed
  802. libdvdread:DVDOpenFileUDF:UDFFindFile /VIDEO_TS/VIDEO_TS.BUP failed
  803. libdvdread: Can't open file VIDEO_TS.IFO.
  804. libdvdnav: vm: failed to read VIDEO_TS.IFO
  805. [21:22:35] dvd: not a dvd - trying as a stream/file instead
  806. Input #0, mov,mp4,m4a,3gp,3g2,mj2, from '/Volumes/Extreme SSD/TPU Curso/*Vídeos/*Original VariableFR/KMPB1703.MOV':
  807.   Metadata:
  808.     major_brand     : qt  
  809.     minor_version   : 0
  810.     compatible_brands: qt  
  811.     creation_time   : 2018-11-03 14:56:36
  812.   Duration: 15:59:01.73, start: -57396.653333, bitrate: 126 kb/s
  813.     Stream #0:0(und): Video: hevc (Main) [hvc1 / 0x31637668]
  814.       yuv420p, tv, bt709/bt709/bt709
  815.       2048x1152 [PAR 1:1 DAR 16:9], 50008 kb/s, PAR 1:1 DAR 16:9
  816.       24 fps, 600 tbn (default)
  817.     Metadata:
  818.       creation_time   : 2018-11-03 14:56:36
  819.       handler_name    : Core Media Data Handler
  820.       encoder         : HEVC
  821.     Stream #0:1(und): Audio: alac [alac / 0x63616C61]
  822.       48000 Hz, stereo, s16p, 152 kb/s (default)
  823.     Metadata:
  824.       creation_time   : 2018-11-03 14:56:36
  825.       handler_name    : Core Media Data Handler
  826.     Stream #0:2(und): Data: tmcd / 0x64636D74 (default)
  827.     Metadata:
  828.       creation_time   : 2018-11-03 14:56:36
  829.       handler_name    : Core Media Data Handler
  830. [21:22:36] scan: decoding previews for title 1
  831. [21:22:36] scan: audio 0x1: alac, rate=48000Hz, bitrate=152298 Unknown (alac) (2.0 ch)
  832. error: avformat_seek_file failed
  833. error: avformat_seek_file failed
  834. error: avformat_seek_file failed
  835. error: Last error repeated 1 times
  836. error: avformat_seek_file failed
  837. error: avformat_seek_file failed
  838. error: Last error repeated 1 times
  839. error: avformat_seek_file failed
  840. error: avformat_seek_file failed
  841. error: Last error repeated 1 times
  842. error: avformat_seek_file failed
  843. error: avformat_seek_file failed
  844. error: Last error repeated 1 times
  845. error: avformat_seek_file failed
  846. [21:22:45] scan: 10 previews, 2048x1152, 0.060 fps, autocrop = 0/0/0/0, aspect 16:9, PAR 1:1
  847. [21:22:45] libhb: scan thread found 1 valid title(s)
  848. [21:22:45] macgui: QueueCore scan done
  849. [21:22:45] macgui: QueueCore started encoding KMPB1703(fr same as source).mp4
  850. [21:22:45] 1 job(s) to process
  851. [21:22:45] macgui: QueueCore with preset Very Fast 1080p30 (Modified)
  852. [21:22:45] starting job
  853. [21:22:45] decomb filter thread started for segment 0
  854. [21:22:45] decomb filter thread started for segment 1
  855. [21:22:45] decomb filter thread started for segment 2
  856. [21:22:45] decomb check thread started for segment 0
  857. [21:22:45] decomb filter thread started for segment 3
  858. [21:22:45] decomb check thread started for segment 1
  859. [21:22:45] decomb check thread started for segment 2
  860. [21:22:45] decomb check thread started for segment 3
  861. [21:22:45] yadif thread started for segment 0
  862. [21:22:45] yadif thread started for segment 1
  863. [21:22:45] yadif thread started for segment 2
  864. [21:22:45] yadif thread started for segment 3
  865. [21:22:45] work: only 1 chapter, disabling chapter markers
  866. [21:22:45] job configuration:
  867. [21:22:45]  * source
  868. [21:22:45]    + /Volumes/Extreme SSD/TPU Curso/*Vídeos/*Original VariableFR/KMPB1703.MOV
  869. [21:22:45]    + title 1, chapter(s) 1 to 1
  870. [21:22:45]    + container: mov,mp4,m4a,3gp,3g2,mj2
  871. [21:22:45]    + data rate: 126 kbps
  872. [21:22:45]  * destination
  873. [21:22:45]    + /Users/Fermin/Desktop/KMPB1703(fr same as source).mp4
  874. [21:22:45]    + container: MPEG-4 (libavformat)
  875. [21:22:45]      + align initial A/V stream timestamps
  876. [21:22:45]  * video track
  877. [21:22:45]    + decoder: hevc
  878. [21:22:45]      + bitrate 50008 kbps
  879. [21:22:45]    + filters
  880. [21:22:45]      + Comb Detect (mode=0:spatial-metric=2:motion-thresh=2:spatial-thresh=3:filter-mode=1:block-thresh=80:block-width=16:block-height=16)
  881. [21:22:45]      + Decomb (mode=39)
  882. [21:22:45]      + Framerate Shaper (mode=1:rate=27000000/446316205)
  883. [21:22:45]        + frame rate: 0.060 fps -> constant 0.060 fps
  884. [21:22:45]      + Crop and Scale (width=1920:height=1080:crop-top=0:crop-bottom=0:crop-left=0:crop-right=0)
  885. [21:22:45]        + source: 2048 * 1152, crop (0/0/0/0): 2048 * 1152, scale: 1920 * 1080
  886. [21:22:45]    + Output geometry
  887. [21:22:45]      + storage dimensions: 1920 x 1080
  888. [21:22:45]      + pixel aspect ratio: 1 : 1
  889. [21:22:45]      + display dimensions: 1920 x 1080
  890. [21:22:45]    + encoder: H.264 (libx264)
  891. [21:22:45]      + preset:  veryfast
  892. [21:22:45]      + profile: main
  893. [21:22:45]      + level:   4.0
  894. [21:22:45]      + quality: 24.00 (RF)
  895. [21:22:45]  * audio track 1
  896. [21:22:45]    + decoder: Unknown (alac) (2.0 ch) (track 1, id 0x1)
  897. [21:22:45]      + bitrate: 152 kbps, samplerate: 48000 Hz
  898. [21:22:45]    + mixdown: Stereo
  899. [21:22:45]    + encoder: AAC (Apple AudioToolbox)
  900. [21:22:45]      + bitrate: 160 kbps, samplerate: 48000 Hz
  901. [21:22:45] sync: expecting 3481 video frames
  902. [21:22:45] encx264: min-keyint: auto (0), keyint: 0
  903. [21:22:45] encx264: encoding at constant RF 24.000000
  904. [21:22:45] encx264: unparsed options: level=4.0:ref=1:8x8dct=0:weightp=1:subme=2:mixed-refs=0:trellis=0:vbv-bufsize=25000:vbv-maxrate=20000:rc-lookahead=10
  905. x264 [info]: using SAR=1/1
  906. x264 [info]: using cpu capabilities: MMX2 SSE2Fast SSSE3 SSE4.2 AVX
  907. x264 [warning]: VBV buffer size cannot be smaller than one frame, using 330604 kbit
  908. x264 [info]: profile Main, level 4.0
  909. [21:22:49] sync: first pts video is 0
  910. [21:22:49] sync: "Chapter 1" (1) at frame 1 time 0
  911. [21:22:49] sync: first pts audio 0x1 is 0
  912. [21:28:51] reader: done. 1 scr changes
  913. [21:28:57] work: average encoding speed for job is 9.407113 fps
  914. [21:28:57] comb detect: heavy 0 | light 61 | uncombed 3420 | total 3481
  915. [21:28:57] decomb: deinterlaced 0 | blended 61 | unfiltered 3420 | total 3481
  916. [21:28:57] vfr: 10 frames output, 3471 dropped and 0 duped for CFR/PFR
  917. [21:28:57] vfr: lost time: 0 (0 frames)
  918. [21:28:57] vfr: gained time: 0 (0 frames) (0 not accounted for)
  919. [21:28:57] alac-decoder done: 1699 frames, 0 decoder errors
  920. [21:28:57] hevc-decoder done: 3481 frames, 0 decoder errors
  921. [21:28:57] sync: got 3481 frames, 3481 expected
  922. [21:28:57] sync: framerate min 0.060 fps, max 25.000 fps, avg 21.551 fps
  923. x264 [info]: frame I:10    Avg QP:15.45  size:320307
  924. x264 [info]: mb I  I16..4: 36.1%  0.0% 63.9%
  925. x264 [info]: coded y,uvDC,uvAC intra: 94.1% 23.9% 7.2%
  926. x264 [info]: i16 v,h,dc,p: 18%  4% 70%  9%
  927. x264 [info]: i4 v,h,dc,ddl,ddr,vr,hd,vl,hu: 17% 12% 18%  9% 10% 10%  7%  9%  7%
  928. x264 [info]: i8c dc,h,v,p: 72% 10% 16%  2%
  929. x264 [info]: kb/s:155.02
  930. [21:28:57] mux: track 0, 10 frames, 3202688 bytes, 155.00 kbps, fifo 16
  931. [21:28:57] mux: track 1, 6799 frames, 2301401 bytes, 111.38 kbps, fifo 8192
  932. [21:28:57] libhb: work result = 0
  933. [21:28:57] macgui: QueueCore work done
  934. [21:28:57] macgui: Queue Done, there are no more pending encodes
RAW Paste Data
We use cookies for various purposes including analytics. By continuing to use Pastebin, you agree to our use of cookies as described in the Cookies Policy. OK, I Understand
 
Top