SHARE
TWEET

Untitled

a guest Feb 22nd, 2019 103 Never
Not a member of Pastebin yet? Sign Up, it unlocks many cool features!
  1. FILE "Akumajou Dracula X - Chi no Rondo (J).bin" BINARY
  2.   TRACK 01 AUDIO
  3.     INDEX 01 00:00:00
  4.   TRACK 02 MODE1/2048
  5.     PREGAP 00:03:00
  6.     INDEX 01 00:48:65
  7.   TRACK 03 AUDIO
  8.     PREGAP 00:02:00
  9.     INDEX 01 03:04:14
  10.   TRACK 04 AUDIO
  11.     INDEX 01 04:50:48
  12.   TRACK 05 AUDIO
  13.     INDEX 01 05:53:67
  14.   TRACK 06 AUDIO
  15.     INDEX 01 07:30:09
  16.   TRACK 07 AUDIO
  17.     INDEX 01 08:53:61
  18.   TRACK 08 AUDIO
  19.     INDEX 01 09:58:35
  20.   TRACK 09 AUDIO
  21.     INDEX 01 12:56:60
  22.   TRACK 10 AUDIO
  23.     INDEX 01 14:40:28
  24.   TRACK 11 AUDIO
  25.     INDEX 01 17:21:05
  26.   TRACK 12 AUDIO
  27.     INDEX 01 19:02:58
  28.   TRACK 13 AUDIO
  29.     INDEX 01 21:33:18
  30.   TRACK 14 AUDIO
  31.     INDEX 01 24:00:69
  32.   TRACK 15 AUDIO
  33.     INDEX 01 27:40:51
  34.   TRACK 16 AUDIO
  35.     INDEX 01 30:06:10
  36.   TRACK 17 AUDIO
  37.     INDEX 01 33:21:56
  38.   TRACK 18 AUDIO
  39.     INDEX 01 34:51:29
  40.   TRACK 19 AUDIO
  41.     INDEX 01 36:33:49
  42.   TRACK 20 AUDIO
  43.     INDEX 01 38:33:50
  44.   TRACK 21 AUDIO
  45.     INDEX 01 42:35:12
  46.   TRACK 22 MODE1/2048
  47.     PREGAP 00:03:00
  48.     INDEX 01 46:48:62
RAW Paste Data
We use cookies for various purposes including analytics. By continuing to use Pastebin, you agree to our use of cookies as described in the Cookies Policy. OK, I Understand
 
Top