Guest User

Untitled

a guest
Apr 26th, 2021
87
Never
Not a member of Pastebin yet? Sign Up, it unlocks many cool features!
  1. General
  2. Unique ID : 124810731503180709055947709617775211774 (0x5DE5AC2A28887CCD2C5EFA84A15274FE)
  3. Complete name : F:\Video\Godzilla.vs.Kong.2021.WEB-DL.2160p.HDR.seleZen.mkv
  4. Format : Matroska
  5. Format version : Version 4
  6. File size : 15.1 GiB
  7. Duration : 1 h 53 min
  8. Overall bit rate : 19.1 Mb/s
  9. Movie name : Godzilla vs Kong 2021 from seleZen
  10. Encoded date : UTC 2021-04-26 20:13:59
  11. Writing application : mkvmerge v55.0.0 ('Waiting For Space') 64-bit
  12. Writing library : libebml v1.4.2 + libmatroska v1.6.4
  13.  
  14. Video
  15. ID : 1
  16. Format : HEVC
  17. Format/Info : High Efficiency Video Coding
  18. Format profile : Main 10@L5@Main
  19. HDR format : SMPTE ST 2086, HDR10 compatible
  20. Codec ID : V_MPEGH/ISO/HEVC
  21. Duration : 1 h 53 min
  22. Bit rate : 17.9 Mb/s
  23. Width : 3 840 pixels
  24. Height : 2 160 pixels
  25. Display aspect ratio : 16:9
  26. Frame rate mode : Constant
  27. Frame rate : 23.976 (24000/1001) FPS
  28. Color space : YUV
  29. Chroma subsampling : 4:2:0
  30. Bit depth : 10 bits
  31. Bits/(Pixel*Frame) : 0.090
  32. Stream size : 14.2 GiB (94%)
  33. Writing library : x265 3.4hy:[Linux][GCC 7.5.0][64 bit] 10bit
  34. Encoding settings : cpuid=1111039 / frame-threads=1 / wpp / no-pmode / no-pme / no-psnr / no-ssim / log-level=2 / input-csp=1 / input-res=3840x2160 / interlace=0 / total-frames=0 / level-idc=0 / high-tier=1 / uhd-bd=0 / ref=4 / no-allow-non-conformance / repeat-headers / annexb / no-aud / no-hrd / info / hash=0 / no-temporal-layers / no-open-gop / min-keyint=96 / keyint=96 / gop-lookahead=0 / bframes=3 / b-adapt=2 / b-pyramid / bframe-bias=0 / rc-lookahead=25 / lookahead-slices=4 / scenecut=40 / hist-scenecut=0 / radl=0 / no-splice / no-intra-refresh / ctu=64 / min-cu-size=8 / rect / no-amp / max-tu-size=32 / tu-inter-depth=1 / tu-intra-depth=1 / limit-tu=0 / rdoq-level=2 / dynamic-rd=0.00 / no-ssim-rd / signhide / no-tskip / nr-intra=0 / nr-inter=0 / no-constrained-intra / strong-intra-smoothing / max-merge=3 / limit-refs=3 / limit-modes / me=3 / subme=3 / merange=57 / temporal-mvp / no-frame-dup / no-hme / weightp / no-weightb / no-analyze-src-pics / deblock=0:0 / sao / no-sao-non-deblock / rd=4 / selective-sao=4 / no-early-skip / rskip / no-fast-intra / no-tskip-fast / no-cu-lossless / no-b-intra / no-splitrd-skip / rdpenalty=0 / psy-rd=2.00 / psy-rdoq=1.00 / no-rd-refine / no-lossless / cbqpoffs=0 / crqpoffs=0 / rc=abr / bitrate=18000 / qcomp=0.60 / qpstep=4 / stats-write=0 / stats-read=2 / cplxblur=20.0 / qblur=0.5 / vbv-maxrate=24500 / vbv-bufsize=24500 / vbv-init=0.6 / vbv-end=0.6 / vbv-end-fr-adj=0.0 / ipratio=1.40 / pbratio=1.30 / aq-mode=2 / aq-strength=1.00 / cutree / zone-count=0 / no-strict-cbr / qg-size=32 / no-rc-grain / qpmax=69 / qpmin=0 / no-const-vbv / sar=0 / overscan=0 / videoformat=5 / range=0 / colorprim=9 / transfer=16 / colormatrix=9 / chromaloc=0 / display-window=0 / master-display=G(13250,34500)B(7500,3000)R(34000,16000)WP(15635,16450)L(10000000,1) / cll=598,273 / min-luma=0 / max-luma=1023 / log2-max-poc-lsb=8 / vui-timing-info / vui-hrd-info / no-concatenation / slices=1 / no-opt-qp-pps / no-opt-ref-list-length-pps / no-multi-pass-opt-rps / scenecut-bias=0.05 / hist-threshold=0.01 / no-opt-cu-delta-qp / no-aq-motion / hdr10 / no-hdr10-opt / no-dhdr10-opt / no-idr-recovery-sei / analysis-reuse-level=0 / analysis-save-reuse-level=0 / analysis-load-reuse-level=0 / scale-factor=0 / refine-intra=0 / refine-inter=0 / refine-mv=1 / refine-ctu-distortion=0 / no-limit-sao / ctu-info=0 / no-lowpass-dct / refine-analysis-type=0 / copy-pic=1 / max-ausize-factor=1.0 / no-dynamic-refine / no-single-sei / no-hevc-aq / no-svt / no-field / qp-adaptation-range=1.00 / no-scenecut-aware-qpconformance-window-offsets / right=0 / bottom=0 / decoder-max-rate=0
  35. Language : English
  36. Default : Yes
  37. Forced : No
  38. Color range : Limited
  39. Color primaries : BT.2020
  40. Transfer characteristics : PQ
  41. Matrix coefficients : BT.2020 non-constant
  42. Mastering display color pri : Display P3
  43. Mastering display luminance : min: 0.0001 cd/m2, max: 1000 cd/m2
  44. Maximum Content Light Level : 598 cd/m2
  45. Maximum Frame-Average Light : 273 cd/m2
  46.  
  47. Audio #1
  48. ID : 2
  49. Format : AC-3
  50. Format/Info : Audio Coding 3
  51. Commercial name : Dolby Digital
  52. Codec ID : A_AC3
  53. Duration : 1 h 53 min
  54. Bit rate mode : Constant
  55. Bit rate : 384 kb/s
  56. Channel(s) : 6 channels
  57. Channel layout : L R C LFE Ls Rs
  58. Sampling rate : 48.0 kHz
  59. Frame rate : 31.250 FPS (1536 SPF)
  60. Compression mode : Lossy
  61. Stream size : 311 MiB (2%)
  62. Title : Dub
  63. Language : Russian
  64. Service kind : Complete Main
  65. Default : Yes
  66. Forced : Yes
  67.  
  68. Audio #2
  69. ID : 3
  70. Format : E-AC-3 JOC
  71. Format/Info : Enhanced AC-3 with Joint Object Coding
  72. Commercial name : Dolby Digital Plus with Dolby Atmos
  73. Codec ID : A_EAC3
  74. Duration : 1 h 53 min
  75. Bit rate mode : Constant
  76. Bit rate : 768 kb/s
  77. Channel(s) : 6 channels
  78. Channel layout : L R C LFE Ls Rs
  79. Sampling rate : 48.0 kHz
  80. Frame rate : 31.250 FPS (1536 SPF)
  81. Compression mode : Lossy
  82. Stream size : 622 MiB (4%)
  83. Title : Original
  84. Language : English
  85. Service kind : Complete Main
  86. Default : No
  87. Forced : No
  88. Complexity index : 16
  89. Number of dynamic objects : 15
  90. Bed channel count : 1 channel
  91. Bed channel configuration : LFE
  92.  
  93. Text #1
  94. ID : 4
  95. Format : UTF-8
  96. Codec ID : S_TEXT/UTF8
  97. Codec ID/Info : UTF-8 Plain Text
  98. Duration : 1 h 52 min
  99. Bit rate : 2 b/s
  100. Count of elements : 52
  101. Stream size : 2.37 KiB (0%)
  102. Title : Forced
  103. Language : Russian
  104. Default : Yes
  105. Forced : Yes
  106.  
  107. Text #2
  108. ID : 5
  109. Format : UTF-8
  110. Codec ID : S_TEXT/UTF8
  111. Codec ID/Info : UTF-8 Plain Text
  112. Duration : 1 h 52 min
  113. Bit rate : 62 b/s
  114. Count of elements : 916
  115. Stream size : 51.5 KiB (0%)
  116. Title : Full
  117. Language : Russian
  118. Default : No
  119. Forced : No
  120.  
  121. Text #3
  122. ID : 6
  123. Format : UTF-8
  124. Codec ID : S_TEXT/UTF8
  125. Codec ID/Info : UTF-8 Plain Text
  126. Duration : 1 h 45 min
  127. Bit rate : 50 b/s
  128. Count of elements : 1415
  129. Stream size : 39.5 KiB (0%)
  130. Language : English
  131. Default : No
  132. Forced : No
  133.  
  134.  
RAW Paste Data