SHARE
TWEET

Untitled

a guest Feb 12th, 2018 90 Never
Not a member of Pastebin yet? Sign Up, it unlocks many cool features!
  1. [14:57:22] macgui: Handbrake Version: 1.0.2  (2017012200)
  2. [14:57:22] hb_init: starting libhb thread
  3. [14:57:22] hb_init: starting libhb thread
  4. [14:58:27] macgui: trying to open a folder or file
  5. [14:58:27] macgui: ScanCore scanning titles with a duration of 10 seconds or more
  6. [14:58:27] CPU: Intel(R) Core(TM) i5-4250U CPU @ 1.30GHz
  7. [14:58:27]  - Intel microarchitecture Haswell
  8. [14:58:27]  - logical processor count: 4
  9. [14:58:27] hb_scan: path=/Volumes/NO NAME/a.MPG, title_index=0
  10. udfread ERROR: ECMA 167 Volume Recognition failed
  11. disc.c:274: failed opening UDF image /Volumes/NO NAME/a.MPG
  12. disc.c:352: error opening file BDMV/index.bdmv
  13. disc.c:352: error opening file BDMV/BACKUP/index.bdmv
  14. [14:58:27] bd: not a bd - trying as a stream/file instead
  15. libdvdnav: Using dvdnav version 5.0.1
  16. libdvdread: Encrypted DVD support unavailable.
  17. libdvdread:DVDOpenFileUDF:UDFFindFile /VIDEO_TS/VIDEO_TS.IFO failed
  18. libdvdread:DVDOpenFileUDF:UDFFindFile /VIDEO_TS/VIDEO_TS.BUP failed
  19. libdvdread: Can't open file VIDEO_TS.IFO.
  20. libdvdnav: vm: failed to read VIDEO_TS.IFO
  21. [14:58:27] dvd: not a dvd - trying as a stream/file instead
  22. [psxstr @ 0x7fb7e690b400] Invalid parameters 33 1 -1157562368
  23. [psxstr @ 0x7fb7e690b400] Invalid parameters 33 2305 -1157562368
  24. [psxstr @ 0x7fb7e690b400] Invalid parameters 33 4609 -536805376
  25. [psxstr @ 0x7fb7e690b400] Invalid parameters 33 7169 -536805376
  26. [psxstr @ 0x7fb7e690b400] Invalid parameters 33 9473 -536805376
  27. [psxstr @ 0x7fb7e690b400] Invalid parameters 33 11777 -536805376
  28. [psxstr @ 0x7fb7e690b400] Invalid parameters 33 14337 -536805376
  29. [psxstr @ 0x7fb7e690b400] Invalid parameters 33 16641 -536805376
  30. [psxstr @ 0x7fb7e690b400] Invalid parameters 33 19201 -536805376
  31. [psxstr @ 0x7fb7e690b400] Invalid parameters 33 21505 -536805376
  32. [psxstr @ 0x7fb7e690b400] Invalid parameters 33 23809 -536805376
  33. [psxstr @ 0x7fb7e690b400] Invalid parameters 33 26369 -536805376
  34. [psxstr @ 0x7fb7e690b400] Invalid parameters 33 28673 -536805376
  35. [psxstr @ 0x7fb7e690b400] Invalid parameters 33 33537 -536805376
  36. [psxstr @ 0x7fb7e690b400] Invalid parameters 33 35841 -536805376
  37. [psxstr @ 0x7fb7e690b400] Invalid parameters 33 38401 -536805376
  38. [psxstr @ 0x7fb7e690b400] Invalid parameters 33 40705 -536805376
  39. [psxstr @ 0x7fb7e690b400] Invalid parameters 33 43009 -536805376
  40. [psxstr @ 0x7fb7e690b400] Invalid parameters 33 45569 -536805376
  41. [psxstr @ 0x7fb7e690b400] Invalid parameters 33 47873 -536805376
  42. [psxstr @ 0x7fb7e690b400] Invalid parameters 33 50177 -536805376
  43. [psxstr @ 0x7fb7e690b400] Invalid parameters 33 52737 -536805376
  44. [psxstr @ 0x7fb7e690b400] Invalid parameters 33 55041 -536805376
  45. [psxstr @ 0x7fb7e690b400] Invalid parameters 33 57601 -536805376
  46. [psxstr @ 0x7fb7e690b400] Invalid parameters 33 62209 -536805376
  47. [psxstr @ 0x7fb7e690b400] Invalid parameters 33 64769 -536805376
  48. [psxstr @ 0x7fb7e690b400] Invalid parameters 33 1539 -536805376
  49. [psxstr @ 0x7fb7e690b400] Invalid parameters 33 3843 -536805376
  50. [psxstr @ 0x7fb7e690b400] Invalid parameters 33 6403 -536805376
  51. [psxstr @ 0x7fb7e690b400] Invalid parameters 33 8707 -536805376
  52. [psxstr @ 0x7fb7e690b400] Invalid parameters 33 11267 -536805376
  53. [psxstr @ 0x7fb7e690b400] Invalid parameters 33 15875 -536805376
  54. [psxstr @ 0x7fb7e690b400] Invalid parameters 33 18435 -536805376
  55. [psxstr @ 0x7fb7e690b400] Invalid parameters 33 20739 -536805376
  56. [psxstr @ 0x7fb7e690b400] Invalid parameters 33 23043 -536805376
  57. [psxstr @ 0x7fb7e690b400] Invalid parameters 33 25603 -536805376
  58. [psxstr @ 0x7fb7e690b400] Invalid parameters 33 27907 -536805376
  59. [psxstr @ 0x7fb7e690b400] Invalid parameters 33 32771 -536805376
  60. [psxstr @ 0x7fb7e690b400] Invalid parameters 33 35075 -536805376
  61. [psxstr @ 0x7fb7e690b400] Invalid parameters 33 37635 -536805376
  62. [psxstr @ 0x7fb7e690b400] Invalid parameters 33 39939 -536805376
  63. [psxstr @ 0x7fb7e690b400] Invalid parameters 33 42243 -536805376
  64. [psxstr @ 0x7fb7e690b400] Invalid parameters 33 44803 -536805376
  65. [psxstr @ 0x7fb7e690b400] Invalid parameters 33 49667 -536805376
  66. [psxstr @ 0x7fb7e690b400] Invalid parameters 33 51971 -536805376
  67. [psxstr @ 0x7fb7e690b400] Invalid parameters 33 54275 -1107230720
  68. [psxstr @ 0x7fb7e690b400] Invalid parameters 33 56835 -1107230720
  69. [psxstr @ 0x7fb7e690b400] Invalid parameters 33 59139 -1107230720
  70. [psxstr @ 0x7fb7e690b400] Invalid parameters 33 61443 -536805376
  71. [psxstr @ 0x7fb7e690b400] Invalid parameters 33 773 -536805376
  72. [psxstr @ 0x7fb7e690b400] Invalid parameters 33 3333 -536805376
  73. [psxstr @ 0x7fb7e690b400] Invalid parameters 33 5637 -536805376
  74. [psxstr @ 0x7fb7e690b400] Invalid parameters 33 7941 -536805376
  75. [psxstr @ 0x7fb7e690b400] Invalid parameters 33 10501 -536805376
  76. [psxstr @ 0x7fb7e690b400] Invalid parameters 33 12805 -536805376
  77. [psxstr @ 0x7fb7e690b400] Invalid parameters 33 17669 -1107230720
  78. [psxstr @ 0x7fb7e690b400] Invalid parameters 33 19973 -536805376
  79. [psxstr @ 0x7fb7e690b400] Invalid parameters 33 22533 -1107230720
  80. [psxstr @ 0x7fb7e690b400] Invalid parameters 33 24837 -1107230720
  81. [psxstr @ 0x7fb7e690b400] Invalid parameters 33 27141 -1107230720
  82. [psxstr @ 0x7fb7e690b400] Invalid parameters 33 29701 -1107230720
  83. [psxstr @ 0x7fb7e690b400] Invalid parameters 33 34309 -536805376
  84. [psxstr @ 0x7fb7e690b400] Invalid parameters 33 36869 -536805376
  85. [psxstr @ 0x7fb7e690b400] Invalid parameters 33 39173 -536805376
  86. [psxstr @ 0x7fb7e690b400] Invalid parameters 33 41733 -1107230720
  87. [psxstr @ 0x7fb7e690b400] Invalid parameters 33 44037 -1107230720
  88. [psxstr @ 0x7fb7e690b400] Invalid parameters 33 46341 -536805376
  89. [psxstr @ 0x7fb7e690b400] Invalid parameters 33 48901 -536805376
  90. [psxstr @ 0x7fb7e690b400] Invalid parameters 33 53509 -1107230720
  91. [psxstr @ 0x7fb7e690b400] Invalid parameters 33 56069 -536805376
  92. [psxstr @ 0x7fb7e690b400] Invalid parameters 33 58373 -1107230720
  93. [psxstr @ 0x7fb7e690b400] Invalid parameters 33 60933 -536805376
  94. [psxstr @ 0x7fb7e690b400] Invalid parameters 33 63237 -536805376
  95. [psxstr @ 0x7fb7e690b400] Invalid parameters 33 7 -536805376
  96. [psxstr @ 0x7fb7e690b400] Invalid parameters 33 4871 -536805376
  97. [psxstr @ 0x7fb7e690b400] Invalid parameters 33 7175 -1107230720
  98. [psxstr @ 0x7fb7e690b400] Invalid parameters 33 9735 -536805376
  99. [psxstr @ 0x7fb7e690b400] Invalid parameters 33 12039 -536805376
  100. [psxstr @ 0x7fb7e690b400] Invalid parameters 33 14599 -536805376
  101. [psxstr @ 0x7fb7e690b400] Invalid parameters 33 16903 -536805376
  102. [psxstr @ 0x7fb7e690b400] Invalid parameters 33 21767 -536805376
  103. [psxstr @ 0x7fb7e690b400] Invalid parameters 33 24071 -536805376
  104. [psxstr @ 0x7fb7e690b400] Invalid parameters 33 26375 -536805376
  105. [psxstr @ 0x7fb7e690b400] Invalid parameters 33 28935 -536805376
  106. [psxstr @ 0x7fb7e690b400] Invalid parameters 33 31239 -536805376
  107. [psxstr @ 0x7fb7e690b400] Invalid parameters 33 33799 -536805376
  108. [psxstr @ 0x7fb7e690b400] Invalid parameters 33 38407 -1107230720
  109. [psxstr @ 0x7fb7e690b400] Invalid parameters 33 40967 -536805376
  110. [psxstr @ 0x7fb7e690b400] Invalid parameters 33 43271 -536805376
  111. [psxstr @ 0x7fb7e690b400] Invalid parameters 33 45575 -536805376
  112. [psxstr @ 0x7fb7e690b400] Invalid parameters 33 48135 -536805376
  113. [psxstr @ 0x7fb7e690b400] Invalid parameters 33 50439 -536805376
  114. [psxstr @ 0x7fb7e690b400] Invalid parameters 33 55303 -536805376
  115. [psxstr @ 0x7fb7e690b400] Invalid parameters 33 57607 -536805376
  116. [psxstr @ 0x7fb7e690b400] Invalid parameters 33 60167 -536805376
  117. [psxstr @ 0x7fb7e690b400] Invalid parameters 33 62471 -536805376
  118. [psxstr @ 0x7fb7e690b400] Invalid parameters 33 64775 -536805376
  119. [psxstr @ 0x7fb7e690b400] Invalid parameters 33 1801 -536805376
  120. [psxstr @ 0x7fb7e690b400] Invalid parameters 33 6665 -536805376
  121. [psxstr @ 0x7fb7e690b400] Invalid parameters 33 8969 -536805376
  122. [psxstr @ 0x7fb7e690b400] Invalid parameters 33 11273 -536805376
  123. [psxstr @ 0x7fb7e690b400] Invalid parameters 33 13833 -536805376
  124. [psxstr @ 0x7fb7e690b400] Invalid parameters 33 16137 -536805376
  125. [psxstr @ 0x7fb7e690b400] Invalid parameters 33 18441 -536805376
  126. [psxstr @ 0x7fb7e690b400] Invalid parameters 33 23305 -536805376
  127. [psxstr @ 0x7fb7e690b400] Invalid parameters 33 25865 -536805376
  128. [psxstr @ 0x7fb7e690b400] Invalid parameters 33 28169 -536805376
  129. [psxstr @ 0x7fb7e690b400] Invalid parameters 33 30473 -536805376
  130. [psxstr @ 0x7fb7e690b400] Invalid parameters 33 33033 -536805376
  131. [psxstr @ 0x7fb7e690b400] Invalid parameters 33 35337 -536805376
  132. [psxstr @ 0x7fb7e690b400] Invalid parameters 33 40201 -536805376
  133. [psxstr @ 0x7fb7e690b400] Invalid parameters 33 42505 -536805376
  134. [psxstr @ 0x7fb7e690b400] Invalid parameters 33 45065 -536805376
  135. [psxstr @ 0x7fb7e690b400] Invalid parameters 33 47369 -536805376
  136. [psxstr @ 0x7fb7e690b400] Invalid parameters 33 49673 -536805376
  137. [psxstr @ 0x7fb7e690b400] Invalid parameters 33 52233 -536805376
  138. [psxstr @ 0x7fb7e690b400] Invalid parameters 33 54537 -536805376
  139. [psxstr @ 0x7fb7e690b400] Invalid parameters 33 59401 -536805376
  140. [psxstr @ 0x7fb7e690b400] Invalid parameters 33 61705 -536805376
  141. [psxstr @ 0x7fb7e690b400] Invalid parameters 33 64265 -536805376
  142. [psxstr @ 0x7fb7e690b400] Invalid parameters 33 1035 -536805376
  143. [psxstr @ 0x7fb7e690b400] Invalid parameters 33 3339 -536805376
  144. [psxstr @ 0x7fb7e690b400] Invalid parameters 33 5899 -536805376
  145. [psxstr @ 0x7fb7e690b400] Invalid parameters 33 10507 -536805376
  146. [psxstr @ 0x7fb7e690b400] Invalid parameters 33 13067 -536805376
  147. [psxstr @ 0x7fb7e690b400] Invalid parameters 33 15371 -536805376
  148. [psxstr @ 0x7fb7e690b400] Invalid parameters 33 17931 -536805376
  149. [psxstr @ 0x7fb7e690b400] Invalid parameters 33 20235 -536805376
  150. [psxstr @ 0x7fb7e690b400] Invalid parameters 33 22539 -536805376
  151. [psxstr @ 0x7fb7e690b400] Invalid parameters 33 27403 -536805376
  152. [psxstr @ 0x7fb7e690b400] Invalid parameters 33 29707 -536805376
  153. [psxstr @ 0x7fb7e690b400] Invalid parameters 33 32267 -536805376
  154. [psxstr @ 0x7fb7e690b400] Invalid parameters 33 34571 -1107230720
  155. [psxstr @ 0x7fb7e690b400] Invalid parameters 33 37131 -536805376
  156. [psxstr @ 0x7fb7e690b400] Invalid parameters 33 39435 -536805376
  157. [psxstr @ 0x7fb7e690b400] Invalid parameters 33 44299 -536805376
  158. [psxstr @ 0x7fb7e690b400] Invalid parameters 33 46603 -536805376
  159. [psxstr @ 0x7fb7e690b400] Invalid parameters 33 48907 -536805376
  160. [psxstr @ 0x7fb7e690b400] Invalid parameters 33 51467 -536805376
  161. [psxstr @ 0x7fb7e690b400] Invalid parameters 33 53771 -536805376
  162. [psxstr @ 0x7fb7e690b400] Invalid parameters 33 56331 -536805376
  163. [psxstr @ 0x7fb7e690b400] Invalid parameters 33 60939 -536805376
  164. [psxstr @ 0x7fb7e690b400] Invalid parameters 33 63499 -536805376
  165. [psxstr @ 0x7fb7e690b400] Invalid parameters 33 269 -536805376
  166. [psxstr @ 0x7fb7e690b400] Invalid parameters 33 2573 -536805376
  167. [psxstr @ 0x7fb7e690b400] Invalid parameters 33 5133 -536805376
  168. [psxstr @ 0x7fb7e690b400] Invalid parameters 33 7437 -536805376
  169. [psxstr @ 0x7fb7e690b400] Invalid parameters 33 12301 -536805376
  170. [psxstr @ 0x7fb7e690b400] Invalid parameters 33 14605 -536805376
  171. [psxstr @ 0x7fb7e690b400] Invalid parameters 33 17165 -536805376
  172. [psxstr @ 0x7fb7e690b400] Invalid parameters 33 19469 -536805376
  173. [psxstr @ 0x7fb7e690b400] Invalid parameters 33 21773 -536805376
  174. [psxstr @ 0x7fb7e690b400] Invalid parameters 33 24333 -536805376
  175. [psxstr @ 0x7fb7e690b400] Invalid parameters 33 29197 -536805376
  176. [psxstr @ 0x7fb7e690b400] Invalid parameters 33 31501 -536805376
  177. [psxstr @ 0x7fb7e690b400] Invalid parameters 33 33805 -536805376
  178. [psxstr @ 0x7fb7e690b400] Invalid parameters 33 36365 -536805376
  179. [psxstr @ 0x7fb7e690b400] Invalid parameters 33 38669 -536805376
  180. [psxstr @ 0x7fb7e690b400] Invalid parameters 33 40973 -536805376
  181. [psxstr @ 0x7fb7e690b400] Invalid parameters 33 45837 -536805376
  182. [psxstr @ 0x7fb7e690b400] Invalid parameters 33 48397 -536805376
  183. [psxstr @ 0x7fb7e690b400] Invalid parameters 33 50701 -536805376
  184. [psxstr @ 0x7fb7e690b400] Invalid parameters 33 53005 -536805376
  185. [psxstr @ 0x7fb7e690b400] Invalid parameters 33 55565 -536805376
  186. [psxstr @ 0x7fb7e690b400] Invalid parameters 33 57869 -536805376
  187. [psxstr @ 0x7fb7e690b400] Invalid parameters 33 62733 -536805376
  188. [psxstr @ 0x7fb7e690b400] Invalid parameters 33 65037 -536805376
  189. [psxstr @ 0x7fb7e690b400] Invalid parameters 33 2063 -536805376
  190. [psxstr @ 0x7fb7e690b400] Invalid parameters 33 4367 -536805376
  191. [psxstr @ 0x7fb7e690b400] Invalid parameters 33 6671 -536805376
  192. [psxstr @ 0x7fb7e690b400] Invalid parameters 33 9231 -536805376
  193. [psxstr @ 0x7fb7e690b400] Invalid parameters 33 11535 -536805376
  194. [psxstr @ 0x7fb7e690b400] Invalid parameters 33 16399 -536805376
  195. [psxstr @ 0x7fb7e690b400] Invalid parameters 33 18703 -536805376
  196. [psxstr @ 0x7fb7e690b400] Invalid parameters 33 21263 -536805376
  197. [psxstr @ 0x7fb7e690b400] Invalid parameters 33 23567 -536805376
  198. [psxstr @ 0x7fb7e690b400] Invalid parameters 33 25871 -536805376
  199. [psxstr @ 0x7fb7e690b400] Invalid parameters 33 28431 -536805376
  200. [psxstr @ 0x7fb7e690b400] Invalid parameters 33 33039 -536805376
  201. [psxstr @ 0x7fb7e690b400] Invalid parameters 33 35599 -536805376
  202. [psxstr @ 0x7fb7e690b400] Invalid parameters 33 37903 -536805376
  203. [psxstr @ 0x7fb7e690b400] Invalid parameters 33 40463 -536805376
  204. [psxstr @ 0x7fb7e690b400] Invalid parameters 33 42767 -536805376
  205. [psxstr @ 0x7fb7e690b400] Invalid parameters 33 45071 -536805376
  206. [psxstr @ 0x7fb7e690b400] Invalid parameters 33 49935 -536805376
  207. [psxstr @ 0x7fb7e690b400] Invalid parameters 33 52239 -536805376
  208. [psxstr @ 0x7fb7e690b400] Invalid parameters 33 54799 -536805376
  209. [psxstr @ 0x7fb7e690b400] Invalid parameters 33 57103 -536805376
  210. [psxstr @ 0x7fb7e690b400] Invalid parameters 33 59663 -536805376
  211. [psxstr @ 0x7fb7e690b400] Invalid parameters 33 61967 -536805376
  212. [psxstr @ 0x7fb7e690b400] Invalid parameters 33 1297 -536805376
  213. [psxstr @ 0x7fb7e690b400] Invalid parameters 33 3601 -536805376
  214. [psxstr @ 0x7fb7e690b400] Invalid parameters 33 5905 -536805376
  215. [psxstr @ 0x7fb7e690b400] Invalid parameters 33 8465 -536805376
  216. [psxstr @ 0x7fb7e690b400] Invalid parameters 33 10769 -536805376
  217. [psxstr @ 0x7fb7e690b400] Invalid parameters 33 13329 -536805376
  218. [psxstr @ 0x7fb7e690b400] Invalid parameters 33 17937 -536805376
  219. [psxstr @ 0x7fb7e690b400] Invalid parameters 33 20497 -536805376
  220. [psxstr @ 0x7fb7e690b400] Invalid parameters 33 22801 -536805376
  221. [psxstr @ 0x7fb7e690b400] Invalid parameters 33 25105 -1107230720
  222. [psxstr @ 0x7fb7e690b400] Invalid parameters 33 27665 -536805376
  223. [psxstr @ 0x7fb7e690b400] Invalid parameters 33 29969 -536805376
  224. [psxstr @ 0x7fb7e690b400] Invalid parameters 33 34833 -1107230720
  225. [psxstr @ 0x7fb7e690b400] Invalid parameters 33 37137 -536805376
  226. [psxstr @ 0x7fb7e690b400] Invalid parameters 33 39697 -536805376
  227. [psxstr @ 0x7fb7e690b400] Invalid parameters 33 42001 -536805376
  228. [psxstr @ 0x7fb7e690b400] Invalid parameters 33 44305 -536805376
  229. [psxstr @ 0x7fb7e690b400] Invalid parameters 33 46865 -536805376
  230. [psxstr @ 0x7fb7e690b400] Invalid parameters 33 51729 -536805376
  231. [psxstr @ 0x7fb7e690b400] Invalid parameters 33 54033 -536805376
  232. [psxstr @ 0x7fb7e690b400] Invalid parameters 33 56337 -536805376
  233. [psxstr @ 0x7fb7e690b400] Invalid parameters 33 58897 -536805376
  234. [psxstr @ 0x7fb7e690b400] Invalid parameters 33 61201 -536805376
  235. [psxstr @ 0x7fb7e690b400] Invalid parameters 33 63505 -536805376
  236. [psxstr @ 0x7fb7e690b400] Invalid parameters 33 2835 -536805376
  237. [psxstr @ 0x7fb7e690b400] Invalid parameters 33 5395 -536805376
  238. [psxstr @ 0x7fb7e690b400] Invalid parameters 33 7699 -536805376
  239. [psxstr @ 0x7fb7e690b400] Invalid parameters 33 10003 -536805376
  240. [psxstr @ 0x7fb7e690b400] Invalid parameters 33 12563 -536805376
  241. [psxstr @ 0x7fb7e690b400] Invalid parameters 33 14867 -536805376
  242. [psxstr @ 0x7fb7e690b400] Invalid parameters 33 17171 -536805376
  243. [psxstr @ 0x7fb7e690b400] Invalid parameters 33 22035 -536805376
  244. [psxstr @ 0x7fb7e690b400] Invalid parameters 33 24595 -536805376
  245. [psxstr @ 0x7fb7e690b400] Invalid parameters 33 26899 -536805376
  246. [psxstr @ 0x7fb7e690b400] Invalid parameters 33 29203 -536805376
  247. [psxstr @ 0x7fb7e690b400] Invalid parameters 33 31763 -536805376
  248. [psxstr @ 0x7fb7e690b400] Invalid parameters 33 34067 -536805376
  249. [psxstr @ 0x7fb7e690b400] Invalid parameters 33 38931 -536805376
  250. [psxstr @ 0x7fb7e690b400] Invalid parameters 33 41235 -536805376
  251. [psxstr @ 0x7fb7e690b400] Invalid parameters 33 43795 -536805376
  252. [psxstr @ 0x7fb7e690b400] Invalid parameters 33 46099 -536805376
  253. [psxstr @ 0x7fb7e690b400] Invalid parameters 33 48403 -536805376
  254. [psxstr @ 0x7fb7e690b400] Invalid parameters 33 50963 -536805376
  255. [psxstr @ 0x7fb7e690b400] Invalid parameters 33 55571 -536805376
  256. [psxstr @ 0x7fb7e690b400] Invalid parameters 33 58131 -536805376
  257. [psxstr @ 0x7fb7e690b400] Invalid parameters 33 60435 -536805376
  258. [psxstr @ 0x7fb7e690b400] Invalid parameters 33 62995 -536805376
  259. [psxstr @ 0x7fb7e690b400] Invalid parameters 33 65299 -536805376
  260. [psxstr @ 0x7fb7e690b400] Invalid parameters 33 2069 -536805376
  261. [psxstr @ 0x7fb7e690b400] Invalid parameters 33 6933 -536805376
  262. [psxstr @ 0x7fb7e690b400] Invalid parameters 33 9237 -536805376
  263. [psxstr @ 0x7fb7e690b400] Invalid parameters 33 11797 -536805376
  264. [psxstr @ 0x7fb7e690b400] Invalid parameters 33 14101 -536805376
  265. [psxstr @ 0x7fb7e690b400] Invalid parameters 33 16661 -536805376
  266. [psxstr @ 0x7fb7e690b400] Invalid parameters 33 18965 -536805376
  267. [psxstr @ 0x7fb7e690b400] Invalid parameters 33 23829 -536805376
  268. [psxstr @ 0x7fb7e690b400] Invalid parameters 33 26133 -536805376
  269. [psxstr @ 0x7fb7e690b400] Invalid parameters 33 28437 -536805376
  270. [psxstr @ 0x7fb7e690b400] Invalid parameters 33 30997 -536805376
  271. [psxstr @ 0x7fb7e690b400] Invalid parameters 33 33301 -536805376
  272. [psxstr @ 0x7fb7e690b400] Invalid parameters 33 35861 -536805376
  273. [psxstr @ 0x7fb7e690b400] Invalid parameters 33 40469 -536805376
  274. [psxstr @ 0x7fb7e690b400] Invalid parameters 33 43029 -536805376
  275. [psxstr @ 0x7fb7e690b400] Invalid parameters 33 45333 -536805376
  276. [psxstr @ 0x7fb7e690b400] Invalid parameters 33 47637 -536805376
  277. [psxstr @ 0x7fb7e690b400] Invalid parameters 33 50197 -536805376
  278. [psxstr @ 0x7fb7e690b400] Invalid parameters 33 52501 -536805376
  279. [psxstr @ 0x7fb7e690b400] Invalid parameters 33 57365 -536805376
  280. [psxstr @ 0x7fb7e690b400] Invalid parameters 33 59669 -536805376
  281. [psxstr @ 0x7fb7e690b400] Invalid parameters 33 62229 -536805376
  282. [psxstr @ 0x7fb7e690b400] Invalid parameters 33 64533 -536805376
  283. [psxstr @ 0x7fb7e690b400] Invalid parameters 33 1303 -536805376
  284. [psxstr @ 0x7fb7e690b400] Invalid parameters 33 3863 -536805376
  285. [psxstr @ 0x7fb7e690b400] Invalid parameters 33 8727 -536805376
  286. [psxstr @ 0x7fb7e690b400] Invalid parameters 33 11031 -536805376
  287. [psxstr @ 0x7fb7e690b400] Invalid parameters 33 13335 -536805376
  288. [psxstr @ 0x7fb7e690b400] Invalid parameters 33 15895 -536805376
  289. [psxstr @ 0x7fb7e690b400] Invalid parameters 33 18199 -536805376
  290. [psxstr @ 0x7fb7e690b400] Invalid parameters 33 20503 -536805376
  291. [psxstr @ 0x7fb7e690b400] Invalid parameters 33 23063 -536805376
  292. [psxstr @ 0x7fb7e690b400] Invalid parameters 33 27927 -536805376
  293. [psxstr @ 0x7fb7e690b400] Invalid parameters 33 30231 -536805376
  294. [psxstr @ 0x7fb7e690b400] Invalid parameters 33 32535 -536805376
  295. [psxstr @ 0x7fb7e690b400] Invalid parameters 33 35095 -536805376
  296. [psxstr @ 0x7fb7e690b400] Invalid parameters 33 37399 -536805376
  297. [psxstr @ 0x7fb7e690b400] Invalid parameters 33 39703 -536805376
  298. [psxstr @ 0x7fb7e690b400] Invalid parameters 33 44567 -536805376
  299. [psxstr @ 0x7fb7e690b400] Invalid parameters 33 47127 -536805376
  300. [psxstr @ 0x7fb7e690b400] Invalid parameters 33 49431 -536805376
  301. [psxstr @ 0x7fb7e690b400] Invalid parameters 33 51735 -536805376
  302. [psxstr @ 0x7fb7e690b400] Invalid parameters 33 54295 -536805376
  303. [psxstr @ 0x7fb7e690b400] Invalid parameters 33 56599 -536805376
  304. [psxstr @ 0x7fb7e690b400] Invalid parameters 33 61463 -536805376
  305. [psxstr @ 0x7fb7e690b400] Invalid parameters 33 63767 -536805376
  306. [psxstr @ 0x7fb7e690b400] Invalid parameters 33 793 -536805376
  307. [psxstr @ 0x7fb7e690b400] Invalid parameters 33 3097 -536805376
  308. [psxstr @ 0x7fb7e690b400] Invalid parameters 33 5401 -536805376
  309. [psxstr @ 0x7fb7e690b400] Invalid parameters 33 7961 -536805376
  310. [psxstr @ 0x7fb7e690b400] Invalid parameters 33 12569 -536805376
  311. [psxstr @ 0x7fb7e690b400] Invalid parameters 33 15129 -536805376
  312. [psxstr @ 0x7fb7e690b400] Invalid parameters 33 17433 -536805376
  313. [psxstr @ 0x7fb7e690b400] Invalid parameters 33 19993 -536805376
  314. [psxstr @ 0x7fb7e690b400] Invalid parameters 33 22297 -536805376
  315. [psxstr @ 0x7fb7e690b400] Invalid parameters 33 24601 -536805376
  316. [psxstr @ 0x7fb7e690b400] Invalid parameters 33 29465 -536805376
  317. [psxstr @ 0x7fb7e690b400] Invalid parameters 33 31769 -536805376
  318. [psxstr @ 0x7fb7e690b400] Invalid parameters 33 34329 -536805376
  319. [psxstr @ 0x7fb7e690b400] Invalid parameters 33 36633 -536805376
  320. [psxstr @ 0x7fb7e690b400] Invalid parameters 33 39193 -536805376
  321. [psxstr @ 0x7fb7e690b400] Invalid parameters 33 41497 -536805376
  322. [psxstr @ 0x7fb7e690b400] Invalid parameters 33 46361 -536805376
  323. [psxstr @ 0x7fb7e690b400] Invalid parameters 33 48665 -536805376
  324. [psxstr @ 0x7fb7e690b400] Invalid parameters 33 50969 -536805376
  325. [psxstr @ 0x7fb7e690b400] Invalid parameters 33 53529 -536805376
  326. [psxstr @ 0x7fb7e690b400] Invalid parameters 33 55833 -536805376
  327. [psxstr @ 0x7fb7e690b400] Invalid parameters 33 58393 -536805376
  328. [psxstr @ 0x7fb7e690b400] Invalid parameters 33 63001 -536805376
  329. [psxstr @ 0x7fb7e690b400] Invalid parameters 33 27 -536805376
  330. [psxstr @ 0x7fb7e690b400] Invalid parameters 33 2331 -536805376
  331. [psxstr @ 0x7fb7e690b400] Invalid parameters 33 4635 -536805376
  332. [psxstr @ 0x7fb7e690b400] Invalid parameters 33 7195 -536805376
  333. [psxstr @ 0x7fb7e690b400] Invalid parameters 33 9499 -536805376
  334. [psxstr @ 0x7fb7e690b400] Invalid parameters 33 14363 -536805376
  335. [psxstr @ 0x7fb7e690b400] Invalid parameters 33 16667 -536805376
  336. [psxstr @ 0x7fb7e690b400] Invalid parameters 33 19227 -536805376
  337. [psxstr @ 0x7fb7e690b400] Invalid parameters 33 21531 -536805376
  338. [psxstr @ 0x7fb7e690b400] Invalid parameters 33 23835 -536805376
  339. [psxstr @ 0x7fb7e690b400] Invalid parameters 33 26395 -536805376
  340. Input #0, psxstr, from '/Volumes/NO NAME/a.MPG':
  341.   Duration: N/A, start: 0.000000, bitrate: N/A
  342.     Stream #0:0: Audio: adpcm_xa
  343.       18900 Hz, stereo, s16p
  344. [14:58:27] hb_stream_open: open /Volumes/NO NAME/a.MPG failed
  345. [14:58:27] scan: unrecognized file type
  346. [14:58:27] libhb: scan thread found 0 valid title(s)
  347. [14:58:28] macgui: ScanCore scan done
  348. [14:58:46] macgui: trying to open a folder or file
  349. [14:58:46] macgui: ScanCore scanning titles with a duration of 10 seconds or more
  350. [14:58:46] CPU: Intel(R) Core(TM) i5-4250U CPU @ 1.30GHz
  351. [14:58:46]  - Intel microarchitecture Haswell
  352. [14:58:46]  - logical processor count: 4
  353. [14:58:46] hb_scan: path=/Volumes/NO NAME/a.MPG, title_index=0
  354. udfread ERROR: ECMA 167 Volume Recognition failed
  355. disc.c:274: failed opening UDF image /Volumes/NO NAME/a.MPG
  356. disc.c:352: error opening file BDMV/index.bdmv
  357. disc.c:352: error opening file BDMV/BACKUP/index.bdmv
  358. [14:58:46] bd: not a bd - trying as a stream/file instead
  359. libdvdnav: Using dvdnav version 5.0.1
  360. libdvdread: Encrypted DVD support unavailable.
  361. libdvdread:DVDOpenFileUDF:UDFFindFile /VIDEO_TS/VIDEO_TS.IFO failed
  362. libdvdread:DVDOpenFileUDF:UDFFindFile /VIDEO_TS/VIDEO_TS.BUP failed
  363. libdvdread: Can't open file VIDEO_TS.IFO.
  364. libdvdnav: vm: failed to read VIDEO_TS.IFO
  365. [14:58:46] dvd: not a dvd - trying as a stream/file instead
  366. [psxstr @ 0x7fb7e7128a00] Invalid parameters 33 1 -1157562368
  367. [psxstr @ 0x7fb7e7128a00] Invalid parameters 33 2305 -1157562368
  368. [psxstr @ 0x7fb7e7128a00] Invalid parameters 33 4609 -536805376
  369. [psxstr @ 0x7fb7e7128a00] Invalid parameters 33 7169 -536805376
  370. [psxstr @ 0x7fb7e7128a00] Invalid parameters 33 9473 -536805376
  371. [psxstr @ 0x7fb7e7128a00] Invalid parameters 33 11777 -536805376
  372. [psxstr @ 0x7fb7e7128a00] Invalid parameters 33 14337 -536805376
  373. [psxstr @ 0x7fb7e7128a00] Invalid parameters 33 16641 -536805376
  374. [psxstr @ 0x7fb7e7128a00] Invalid parameters 33 19201 -536805376
  375. [psxstr @ 0x7fb7e7128a00] Invalid parameters 33 21505 -536805376
  376. [psxstr @ 0x7fb7e7128a00] Invalid parameters 33 23809 -536805376
  377. [psxstr @ 0x7fb7e7128a00] Invalid parameters 33 26369 -536805376
  378. [psxstr @ 0x7fb7e7128a00] Invalid parameters 33 28673 -536805376
  379. [psxstr @ 0x7fb7e7128a00] Invalid parameters 33 33537 -536805376
  380. [psxstr @ 0x7fb7e7128a00] Invalid parameters 33 35841 -536805376
  381. [psxstr @ 0x7fb7e7128a00] Invalid parameters 33 38401 -536805376
  382. [psxstr @ 0x7fb7e7128a00] Invalid parameters 33 40705 -536805376
  383. [psxstr @ 0x7fb7e7128a00] Invalid parameters 33 43009 -536805376
  384. [psxstr @ 0x7fb7e7128a00] Invalid parameters 33 45569 -536805376
  385. [psxstr @ 0x7fb7e7128a00] Invalid parameters 33 47873 -536805376
  386. [psxstr @ 0x7fb7e7128a00] Invalid parameters 33 50177 -536805376
  387. [psxstr @ 0x7fb7e7128a00] Invalid parameters 33 52737 -536805376
  388. [psxstr @ 0x7fb7e7128a00] Invalid parameters 33 55041 -536805376
  389. [psxstr @ 0x7fb7e7128a00] Invalid parameters 33 57601 -536805376
  390. [psxstr @ 0x7fb7e7128a00] Invalid parameters 33 62209 -536805376
  391. [psxstr @ 0x7fb7e7128a00] Invalid parameters 33 64769 -536805376
  392. [psxstr @ 0x7fb7e7128a00] Invalid parameters 33 1539 -536805376
  393. [psxstr @ 0x7fb7e7128a00] Invalid parameters 33 3843 -536805376
  394. [psxstr @ 0x7fb7e7128a00] Invalid parameters 33 6403 -536805376
  395. [psxstr @ 0x7fb7e7128a00] Invalid parameters 33 8707 -536805376
  396. [psxstr @ 0x7fb7e7128a00] Invalid parameters 33 11267 -536805376
  397. [psxstr @ 0x7fb7e7128a00] Invalid parameters 33 15875 -536805376
  398. [psxstr @ 0x7fb7e7128a00] Invalid parameters 33 18435 -536805376
  399. [psxstr @ 0x7fb7e7128a00] Invalid parameters 33 20739 -536805376
  400. [psxstr @ 0x7fb7e7128a00] Invalid parameters 33 23043 -536805376
  401. [psxstr @ 0x7fb7e7128a00] Invalid parameters 33 25603 -536805376
  402. [psxstr @ 0x7fb7e7128a00] Invalid parameters 33 27907 -536805376
  403. [psxstr @ 0x7fb7e7128a00] Invalid parameters 33 32771 -536805376
  404. [psxstr @ 0x7fb7e7128a00] Invalid parameters 33 35075 -536805376
  405. [psxstr @ 0x7fb7e7128a00] Invalid parameters 33 37635 -536805376
  406. [psxstr @ 0x7fb7e7128a00] Invalid parameters 33 39939 -536805376
  407. [psxstr @ 0x7fb7e7128a00] Invalid parameters 33 42243 -536805376
  408. [psxstr @ 0x7fb7e7128a00] Invalid parameters 33 44803 -536805376
  409. [psxstr @ 0x7fb7e7128a00] Invalid parameters 33 49667 -536805376
  410. [psxstr @ 0x7fb7e7128a00] Invalid parameters 33 51971 -536805376
  411. [psxstr @ 0x7fb7e7128a00] Invalid parameters 33 54275 -1107230720
  412. [psxstr @ 0x7fb7e7128a00] Invalid parameters 33 56835 -1107230720
  413. [psxstr @ 0x7fb7e7128a00] Invalid parameters 33 59139 -1107230720
  414. [psxstr @ 0x7fb7e7128a00] Invalid parameters 33 61443 -536805376
  415. [psxstr @ 0x7fb7e7128a00] Invalid parameters 33 773 -536805376
  416. [psxstr @ 0x7fb7e7128a00] Invalid parameters 33 3333 -536805376
  417. [psxstr @ 0x7fb7e7128a00] Invalid parameters 33 5637 -536805376
  418. [psxstr @ 0x7fb7e7128a00] Invalid parameters 33 7941 -536805376
  419. [psxstr @ 0x7fb7e7128a00] Invalid parameters 33 10501 -536805376
  420. [psxstr @ 0x7fb7e7128a00] Invalid parameters 33 12805 -536805376
  421. [psxstr @ 0x7fb7e7128a00] Invalid parameters 33 17669 -1107230720
  422. [psxstr @ 0x7fb7e7128a00] Invalid parameters 33 19973 -536805376
  423. [psxstr @ 0x7fb7e7128a00] Invalid parameters 33 22533 -1107230720
  424. [psxstr @ 0x7fb7e7128a00] Invalid parameters 33 24837 -1107230720
  425. [psxstr @ 0x7fb7e7128a00] Invalid parameters 33 27141 -1107230720
  426. [psxstr @ 0x7fb7e7128a00] Invalid parameters 33 29701 -1107230720
  427. [psxstr @ 0x7fb7e7128a00] Invalid parameters 33 34309 -536805376
  428. [psxstr @ 0x7fb7e7128a00] Invalid parameters 33 36869 -536805376
  429. [psxstr @ 0x7fb7e7128a00] Invalid parameters 33 39173 -536805376
  430. [psxstr @ 0x7fb7e7128a00] Invalid parameters 33 41733 -1107230720
  431. [psxstr @ 0x7fb7e7128a00] Invalid parameters 33 44037 -1107230720
  432. [psxstr @ 0x7fb7e7128a00] Invalid parameters 33 46341 -536805376
  433. [psxstr @ 0x7fb7e7128a00] Invalid parameters 33 48901 -536805376
  434. [psxstr @ 0x7fb7e7128a00] Invalid parameters 33 53509 -1107230720
  435. [psxstr @ 0x7fb7e7128a00] Invalid parameters 33 56069 -536805376
  436. [psxstr @ 0x7fb7e7128a00] Invalid parameters 33 58373 -1107230720
  437. [psxstr @ 0x7fb7e7128a00] Invalid parameters 33 60933 -536805376
  438. [psxstr @ 0x7fb7e7128a00] Invalid parameters 33 63237 -536805376
  439. [psxstr @ 0x7fb7e7128a00] Invalid parameters 33 7 -536805376
  440. [psxstr @ 0x7fb7e7128a00] Invalid parameters 33 4871 -536805376
  441. [psxstr @ 0x7fb7e7128a00] Invalid parameters 33 7175 -1107230720
  442. [psxstr @ 0x7fb7e7128a00] Invalid parameters 33 9735 -536805376
  443. [psxstr @ 0x7fb7e7128a00] Invalid parameters 33 12039 -536805376
  444. [psxstr @ 0x7fb7e7128a00] Invalid parameters 33 14599 -536805376
  445. [psxstr @ 0x7fb7e7128a00] Invalid parameters 33 16903 -536805376
  446. [psxstr @ 0x7fb7e7128a00] Invalid parameters 33 21767 -536805376
  447. [psxstr @ 0x7fb7e7128a00] Invalid parameters 33 24071 -536805376
  448. [psxstr @ 0x7fb7e7128a00] Invalid parameters 33 26375 -536805376
  449. [psxstr @ 0x7fb7e7128a00] Invalid parameters 33 28935 -536805376
  450. [psxstr @ 0x7fb7e7128a00] Invalid parameters 33 31239 -536805376
  451. [psxstr @ 0x7fb7e7128a00] Invalid parameters 33 33799 -536805376
  452. [psxstr @ 0x7fb7e7128a00] Invalid parameters 33 38407 -1107230720
  453. [psxstr @ 0x7fb7e7128a00] Invalid parameters 33 40967 -536805376
  454. [psxstr @ 0x7fb7e7128a00] Invalid parameters 33 43271 -536805376
  455. [psxstr @ 0x7fb7e7128a00] Invalid parameters 33 45575 -536805376
  456. [psxstr @ 0x7fb7e7128a00] Invalid parameters 33 48135 -536805376
  457. [psxstr @ 0x7fb7e7128a00] Invalid parameters 33 50439 -536805376
  458. [psxstr @ 0x7fb7e7128a00] Invalid parameters 33 55303 -536805376
  459. [psxstr @ 0x7fb7e7128a00] Invalid parameters 33 57607 -536805376
  460. [psxstr @ 0x7fb7e7128a00] Invalid parameters 33 60167 -536805376
  461. [psxstr @ 0x7fb7e7128a00] Invalid parameters 33 62471 -536805376
  462. [psxstr @ 0x7fb7e7128a00] Invalid parameters 33 64775 -536805376
  463. [psxstr @ 0x7fb7e7128a00] Invalid parameters 33 1801 -536805376
  464. [psxstr @ 0x7fb7e7128a00] Invalid parameters 33 6665 -536805376
  465. [psxstr @ 0x7fb7e7128a00] Invalid parameters 33 8969 -536805376
  466. [psxstr @ 0x7fb7e7128a00] Invalid parameters 33 11273 -536805376
  467. [psxstr @ 0x7fb7e7128a00] Invalid parameters 33 13833 -536805376
  468. [psxstr @ 0x7fb7e7128a00] Invalid parameters 33 16137 -536805376
  469. [psxstr @ 0x7fb7e7128a00] Invalid parameters 33 18441 -536805376
  470. [psxstr @ 0x7fb7e7128a00] Invalid parameters 33 23305 -536805376
  471. [psxstr @ 0x7fb7e7128a00] Invalid parameters 33 25865 -536805376
  472. [psxstr @ 0x7fb7e7128a00] Invalid parameters 33 28169 -536805376
  473. [psxstr @ 0x7fb7e7128a00] Invalid parameters 33 30473 -536805376
  474. [psxstr @ 0x7fb7e7128a00] Invalid parameters 33 33033 -536805376
  475. [psxstr @ 0x7fb7e7128a00] Invalid parameters 33 35337 -536805376
  476. [psxstr @ 0x7fb7e7128a00] Invalid parameters 33 40201 -536805376
  477. [psxstr @ 0x7fb7e7128a00] Invalid parameters 33 42505 -536805376
  478. [psxstr @ 0x7fb7e7128a00] Invalid parameters 33 45065 -536805376
  479. [psxstr @ 0x7fb7e7128a00] Invalid parameters 33 47369 -536805376
  480. [psxstr @ 0x7fb7e7128a00] Invalid parameters 33 49673 -536805376
  481. [psxstr @ 0x7fb7e7128a00] Invalid parameters 33 52233 -536805376
  482. [psxstr @ 0x7fb7e7128a00] Invalid parameters 33 54537 -536805376
  483. [psxstr @ 0x7fb7e7128a00] Invalid parameters 33 59401 -536805376
  484. [psxstr @ 0x7fb7e7128a00] Invalid parameters 33 61705 -536805376
  485. [psxstr @ 0x7fb7e7128a00] Invalid parameters 33 64265 -536805376
  486. [psxstr @ 0x7fb7e7128a00] Invalid parameters 33 1035 -536805376
  487. [psxstr @ 0x7fb7e7128a00] Invalid parameters 33 3339 -536805376
  488. [psxstr @ 0x7fb7e7128a00] Invalid parameters 33 5899 -536805376
  489. [psxstr @ 0x7fb7e7128a00] Invalid parameters 33 10507 -536805376
  490. [psxstr @ 0x7fb7e7128a00] Invalid parameters 33 13067 -536805376
  491. [psxstr @ 0x7fb7e7128a00] Invalid parameters 33 15371 -536805376
  492. [psxstr @ 0x7fb7e7128a00] Invalid parameters 33 17931 -536805376
  493. [psxstr @ 0x7fb7e7128a00] Invalid parameters 33 20235 -536805376
  494. [psxstr @ 0x7fb7e7128a00] Invalid parameters 33 22539 -536805376
  495. [psxstr @ 0x7fb7e7128a00] Invalid parameters 33 27403 -536805376
  496. [psxstr @ 0x7fb7e7128a00] Invalid parameters 33 29707 -536805376
  497. [psxstr @ 0x7fb7e7128a00] Invalid parameters 33 32267 -536805376
  498. [psxstr @ 0x7fb7e7128a00] Invalid parameters 33 34571 -1107230720
  499. [psxstr @ 0x7fb7e7128a00] Invalid parameters 33 37131 -536805376
  500. [psxstr @ 0x7fb7e7128a00] Invalid parameters 33 39435 -536805376
  501. [psxstr @ 0x7fb7e7128a00] Invalid parameters 33 44299 -536805376
  502. [psxstr @ 0x7fb7e7128a00] Invalid parameters 33 46603 -536805376
  503. [psxstr @ 0x7fb7e7128a00] Invalid parameters 33 48907 -536805376
  504. [psxstr @ 0x7fb7e7128a00] Invalid parameters 33 51467 -536805376
  505. [psxstr @ 0x7fb7e7128a00] Invalid parameters 33 53771 -536805376
  506. [psxstr @ 0x7fb7e7128a00] Invalid parameters 33 56331 -536805376
  507. [psxstr @ 0x7fb7e7128a00] Invalid parameters 33 60939 -536805376
  508. [psxstr @ 0x7fb7e7128a00] Invalid parameters 33 63499 -536805376
  509. [psxstr @ 0x7fb7e7128a00] Invalid parameters 33 269 -536805376
  510. [psxstr @ 0x7fb7e7128a00] Invalid parameters 33 2573 -536805376
  511. [psxstr @ 0x7fb7e7128a00] Invalid parameters 33 5133 -536805376
  512. [psxstr @ 0x7fb7e7128a00] Invalid parameters 33 7437 -536805376
  513. [psxstr @ 0x7fb7e7128a00] Invalid parameters 33 12301 -536805376
  514. [psxstr @ 0x7fb7e7128a00] Invalid parameters 33 14605 -536805376
  515. [psxstr @ 0x7fb7e7128a00] Invalid parameters 33 17165 -536805376
  516. [psxstr @ 0x7fb7e7128a00] Invalid parameters 33 19469 -536805376
  517. [psxstr @ 0x7fb7e7128a00] Invalid parameters 33 21773 -536805376
  518. [psxstr @ 0x7fb7e7128a00] Invalid parameters 33 24333 -536805376
  519. [psxstr @ 0x7fb7e7128a00] Invalid parameters 33 29197 -536805376
  520. [psxstr @ 0x7fb7e7128a00] Invalid parameters 33 31501 -536805376
  521. [psxstr @ 0x7fb7e7128a00] Invalid parameters 33 33805 -536805376
  522. [psxstr @ 0x7fb7e7128a00] Invalid parameters 33 36365 -536805376
  523. [psxstr @ 0x7fb7e7128a00] Invalid parameters 33 38669 -536805376
  524. [psxstr @ 0x7fb7e7128a00] Invalid parameters 33 40973 -536805376
  525. [psxstr @ 0x7fb7e7128a00] Invalid parameters 33 45837 -536805376
  526. [psxstr @ 0x7fb7e7128a00] Invalid parameters 33 48397 -536805376
  527. [psxstr @ 0x7fb7e7128a00] Invalid parameters 33 50701 -536805376
  528. [psxstr @ 0x7fb7e7128a00] Invalid parameters 33 53005 -536805376
  529. [psxstr @ 0x7fb7e7128a00] Invalid parameters 33 55565 -536805376
  530. [psxstr @ 0x7fb7e7128a00] Invalid parameters 33 57869 -536805376
  531. [psxstr @ 0x7fb7e7128a00] Invalid parameters 33 62733 -536805376
  532. [psxstr @ 0x7fb7e7128a00] Invalid parameters 33 65037 -536805376
  533. [psxstr @ 0x7fb7e7128a00] Invalid parameters 33 2063 -536805376
  534. [psxstr @ 0x7fb7e7128a00] Invalid parameters 33 4367 -536805376
  535. [psxstr @ 0x7fb7e7128a00] Invalid parameters 33 6671 -536805376
  536. [psxstr @ 0x7fb7e7128a00] Invalid parameters 33 9231 -536805376
  537. [psxstr @ 0x7fb7e7128a00] Invalid parameters 33 11535 -536805376
  538. [psxstr @ 0x7fb7e7128a00] Invalid parameters 33 16399 -536805376
  539. [psxstr @ 0x7fb7e7128a00] Invalid parameters 33 18703 -536805376
  540. [psxstr @ 0x7fb7e7128a00] Invalid parameters 33 21263 -536805376
  541. [psxstr @ 0x7fb7e7128a00] Invalid parameters 33 23567 -536805376
  542. [psxstr @ 0x7fb7e7128a00] Invalid parameters 33 25871 -536805376
  543. [psxstr @ 0x7fb7e7128a00] Invalid parameters 33 28431 -536805376
  544. [psxstr @ 0x7fb7e7128a00] Invalid parameters 33 33039 -536805376
  545. [psxstr @ 0x7fb7e7128a00] Invalid parameters 33 35599 -536805376
  546. [psxstr @ 0x7fb7e7128a00] Invalid parameters 33 37903 -536805376
  547. [psxstr @ 0x7fb7e7128a00] Invalid parameters 33 40463 -536805376
  548. [psxstr @ 0x7fb7e7128a00] Invalid parameters 33 42767 -536805376
  549. [psxstr @ 0x7fb7e7128a00] Invalid parameters 33 45071 -536805376
  550. [psxstr @ 0x7fb7e7128a00] Invalid parameters 33 49935 -536805376
  551. [psxstr @ 0x7fb7e7128a00] Invalid parameters 33 52239 -536805376
  552. [psxstr @ 0x7fb7e7128a00] Invalid parameters 33 54799 -536805376
  553. [psxstr @ 0x7fb7e7128a00] Invalid parameters 33 57103 -536805376
  554. [psxstr @ 0x7fb7e7128a00] Invalid parameters 33 59663 -536805376
  555. [psxstr @ 0x7fb7e7128a00] Invalid parameters 33 61967 -536805376
  556. [psxstr @ 0x7fb7e7128a00] Invalid parameters 33 1297 -536805376
  557. [psxstr @ 0x7fb7e7128a00] Invalid parameters 33 3601 -536805376
  558. [psxstr @ 0x7fb7e7128a00] Invalid parameters 33 5905 -536805376
  559. [psxstr @ 0x7fb7e7128a00] Invalid parameters 33 8465 -536805376
  560. [psxstr @ 0x7fb7e7128a00] Invalid parameters 33 10769 -536805376
  561. [psxstr @ 0x7fb7e7128a00] Invalid parameters 33 13329 -536805376
  562. [psxstr @ 0x7fb7e7128a00] Invalid parameters 33 17937 -536805376
  563. [psxstr @ 0x7fb7e7128a00] Invalid parameters 33 20497 -536805376
  564. [psxstr @ 0x7fb7e7128a00] Invalid parameters 33 22801 -536805376
  565. [psxstr @ 0x7fb7e7128a00] Invalid parameters 33 25105 -1107230720
  566. [psxstr @ 0x7fb7e7128a00] Invalid parameters 33 27665 -536805376
  567. [psxstr @ 0x7fb7e7128a00] Invalid parameters 33 29969 -536805376
  568. [psxstr @ 0x7fb7e7128a00] Invalid parameters 33 34833 -1107230720
  569. [psxstr @ 0x7fb7e7128a00] Invalid parameters 33 37137 -536805376
  570. [psxstr @ 0x7fb7e7128a00] Invalid parameters 33 39697 -536805376
  571. [psxstr @ 0x7fb7e7128a00] Invalid parameters 33 42001 -536805376
  572. [psxstr @ 0x7fb7e7128a00] Invalid parameters 33 44305 -536805376
  573. [psxstr @ 0x7fb7e7128a00] Invalid parameters 33 46865 -536805376
  574. [psxstr @ 0x7fb7e7128a00] Invalid parameters 33 51729 -536805376
  575. [psxstr @ 0x7fb7e7128a00] Invalid parameters 33 54033 -536805376
  576. [psxstr @ 0x7fb7e7128a00] Invalid parameters 33 56337 -536805376
  577. [psxstr @ 0x7fb7e7128a00] Invalid parameters 33 58897 -536805376
  578. [psxstr @ 0x7fb7e7128a00] Invalid parameters 33 61201 -536805376
  579. [psxstr @ 0x7fb7e7128a00] Invalid parameters 33 63505 -536805376
  580. [psxstr @ 0x7fb7e7128a00] Invalid parameters 33 2835 -536805376
  581. [psxstr @ 0x7fb7e7128a00] Invalid parameters 33 5395 -536805376
  582. [psxstr @ 0x7fb7e7128a00] Invalid parameters 33 7699 -536805376
  583. [psxstr @ 0x7fb7e7128a00] Invalid parameters 33 10003 -536805376
  584. [psxstr @ 0x7fb7e7128a00] Invalid parameters 33 12563 -536805376
  585. [psxstr @ 0x7fb7e7128a00] Invalid parameters 33 14867 -536805376
  586. [psxstr @ 0x7fb7e7128a00] Invalid parameters 33 17171 -536805376
  587. [psxstr @ 0x7fb7e7128a00] Invalid parameters 33 22035 -536805376
  588. [psxstr @ 0x7fb7e7128a00] Invalid parameters 33 24595 -536805376
  589. [psxstr @ 0x7fb7e7128a00] Invalid parameters 33 26899 -536805376
  590. [psxstr @ 0x7fb7e7128a00] Invalid parameters 33 29203 -536805376
  591. [psxstr @ 0x7fb7e7128a00] Invalid parameters 33 31763 -536805376
  592. [psxstr @ 0x7fb7e7128a00] Invalid parameters 33 34067 -536805376
  593. [psxstr @ 0x7fb7e7128a00] Invalid parameters 33 38931 -536805376
  594. [psxstr @ 0x7fb7e7128a00] Invalid parameters 33 41235 -536805376
  595. [psxstr @ 0x7fb7e7128a00] Invalid parameters 33 43795 -536805376
  596. [psxstr @ 0x7fb7e7128a00] Invalid parameters 33 46099 -536805376
  597. [psxstr @ 0x7fb7e7128a00] Invalid parameters 33 48403 -536805376
  598. [psxstr @ 0x7fb7e7128a00] Invalid parameters 33 50963 -536805376
  599. [psxstr @ 0x7fb7e7128a00] Invalid parameters 33 55571 -536805376
  600. [psxstr @ 0x7fb7e7128a00] Invalid parameters 33 58131 -536805376
  601. [psxstr @ 0x7fb7e7128a00] Invalid parameters 33 60435 -536805376
  602. [psxstr @ 0x7fb7e7128a00] Invalid parameters 33 62995 -536805376
  603. [psxstr @ 0x7fb7e7128a00] Invalid parameters 33 65299 -536805376
  604. [psxstr @ 0x7fb7e7128a00] Invalid parameters 33 2069 -536805376
  605. [psxstr @ 0x7fb7e7128a00] Invalid parameters 33 6933 -536805376
  606. [psxstr @ 0x7fb7e7128a00] Invalid parameters 33 9237 -536805376
  607. [psxstr @ 0x7fb7e7128a00] Invalid parameters 33 11797 -536805376
  608. [psxstr @ 0x7fb7e7128a00] Invalid parameters 33 14101 -536805376
  609. [psxstr @ 0x7fb7e7128a00] Invalid parameters 33 16661 -536805376
  610. [psxstr @ 0x7fb7e7128a00] Invalid parameters 33 18965 -536805376
  611. [psxstr @ 0x7fb7e7128a00] Invalid parameters 33 23829 -536805376
  612. [psxstr @ 0x7fb7e7128a00] Invalid parameters 33 26133 -536805376
  613. [psxstr @ 0x7fb7e7128a00] Invalid parameters 33 28437 -536805376
  614. [psxstr @ 0x7fb7e7128a00] Invalid parameters 33 30997 -536805376
  615. [psxstr @ 0x7fb7e7128a00] Invalid parameters 33 33301 -536805376
  616. [psxstr @ 0x7fb7e7128a00] Invalid parameters 33 35861 -536805376
  617. [psxstr @ 0x7fb7e7128a00] Invalid parameters 33 40469 -536805376
  618. [psxstr @ 0x7fb7e7128a00] Invalid parameters 33 43029 -536805376
  619. [psxstr @ 0x7fb7e7128a00] Invalid parameters 33 45333 -536805376
  620. [psxstr @ 0x7fb7e7128a00] Invalid parameters 33 47637 -536805376
  621. [psxstr @ 0x7fb7e7128a00] Invalid parameters 33 50197 -536805376
  622. [psxstr @ 0x7fb7e7128a00] Invalid parameters 33 52501 -536805376
  623. [psxstr @ 0x7fb7e7128a00] Invalid parameters 33 57365 -536805376
  624. [psxstr @ 0x7fb7e7128a00] Invalid parameters 33 59669 -536805376
  625. [psxstr @ 0x7fb7e7128a00] Invalid parameters 33 62229 -536805376
  626. [psxstr @ 0x7fb7e7128a00] Invalid parameters 33 64533 -536805376
  627. [psxstr @ 0x7fb7e7128a00] Invalid parameters 33 1303 -536805376
  628. [psxstr @ 0x7fb7e7128a00] Invalid parameters 33 3863 -536805376
  629. [psxstr @ 0x7fb7e7128a00] Invalid parameters 33 8727 -536805376
  630. [psxstr @ 0x7fb7e7128a00] Invalid parameters 33 11031 -536805376
  631. [psxstr @ 0x7fb7e7128a00] Invalid parameters 33 13335 -536805376
  632. [psxstr @ 0x7fb7e7128a00] Invalid parameters 33 15895 -536805376
  633. [psxstr @ 0x7fb7e7128a00] Invalid parameters 33 18199 -536805376
  634. [psxstr @ 0x7fb7e7128a00] Invalid parameters 33 20503 -536805376
  635. [psxstr @ 0x7fb7e7128a00] Invalid parameters 33 23063 -536805376
  636. [psxstr @ 0x7fb7e7128a00] Invalid parameters 33 27927 -536805376
  637. [psxstr @ 0x7fb7e7128a00] Invalid parameters 33 30231 -536805376
  638. [psxstr @ 0x7fb7e7128a00] Invalid parameters 33 32535 -536805376
  639. [psxstr @ 0x7fb7e7128a00] Invalid parameters 33 35095 -536805376
  640. [psxstr @ 0x7fb7e7128a00] Invalid parameters 33 37399 -536805376
  641. [psxstr @ 0x7fb7e7128a00] Invalid parameters 33 39703 -536805376
  642. [psxstr @ 0x7fb7e7128a00] Invalid parameters 33 44567 -536805376
  643. [psxstr @ 0x7fb7e7128a00] Invalid parameters 33 47127 -536805376
  644. [psxstr @ 0x7fb7e7128a00] Invalid parameters 33 49431 -536805376
  645. [psxstr @ 0x7fb7e7128a00] Invalid parameters 33 51735 -536805376
  646. [psxstr @ 0x7fb7e7128a00] Invalid parameters 33 54295 -536805376
  647. [psxstr @ 0x7fb7e7128a00] Invalid parameters 33 56599 -536805376
  648. [psxstr @ 0x7fb7e7128a00] Invalid parameters 33 61463 -536805376
  649. [psxstr @ 0x7fb7e7128a00] Invalid parameters 33 63767 -536805376
  650. [psxstr @ 0x7fb7e7128a00] Invalid parameters 33 793 -536805376
  651. [psxstr @ 0x7fb7e7128a00] Invalid parameters 33 3097 -536805376
  652. [psxstr @ 0x7fb7e7128a00] Invalid parameters 33 5401 -536805376
  653. [psxstr @ 0x7fb7e7128a00] Invalid parameters 33 7961 -536805376
  654. [psxstr @ 0x7fb7e7128a00] Invalid parameters 33 12569 -536805376
  655. [psxstr @ 0x7fb7e7128a00] Invalid parameters 33 15129 -536805376
  656. [psxstr @ 0x7fb7e7128a00] Invalid parameters 33 17433 -536805376
  657. [psxstr @ 0x7fb7e7128a00] Invalid parameters 33 19993 -536805376
  658. [psxstr @ 0x7fb7e7128a00] Invalid parameters 33 22297 -536805376
  659. [psxstr @ 0x7fb7e7128a00] Invalid parameters 33 24601 -536805376
  660. [psxstr @ 0x7fb7e7128a00] Invalid parameters 33 29465 -536805376
  661. [psxstr @ 0x7fb7e7128a00] Invalid parameters 33 31769 -536805376
  662. [psxstr @ 0x7fb7e7128a00] Invalid parameters 33 34329 -536805376
  663. [psxstr @ 0x7fb7e7128a00] Invalid parameters 33 36633 -536805376
  664. [psxstr @ 0x7fb7e7128a00] Invalid parameters 33 39193 -536805376
  665. [psxstr @ 0x7fb7e7128a00] Invalid parameters 33 41497 -536805376
  666. [psxstr @ 0x7fb7e7128a00] Invalid parameters 33 46361 -536805376
  667. [psxstr @ 0x7fb7e7128a00] Invalid parameters 33 48665 -536805376
  668. [psxstr @ 0x7fb7e7128a00] Invalid parameters 33 50969 -536805376
  669. [psxstr @ 0x7fb7e7128a00] Invalid parameters 33 53529 -536805376
  670. [psxstr @ 0x7fb7e7128a00] Invalid parameters 33 55833 -536805376
  671. [psxstr @ 0x7fb7e7128a00] Invalid parameters 33 58393 -536805376
  672. [psxstr @ 0x7fb7e7128a00] Invalid parameters 33 63001 -536805376
  673. [psxstr @ 0x7fb7e7128a00] Invalid parameters 33 27 -536805376
  674. [psxstr @ 0x7fb7e7128a00] Invalid parameters 33 2331 -536805376
  675. [psxstr @ 0x7fb7e7128a00] Invalid parameters 33 4635 -536805376
  676. [psxstr @ 0x7fb7e7128a00] Invalid parameters 33 7195 -536805376
  677. [psxstr @ 0x7fb7e7128a00] Invalid parameters 33 9499 -536805376
  678. [psxstr @ 0x7fb7e7128a00] Invalid parameters 33 14363 -536805376
  679. [psxstr @ 0x7fb7e7128a00] Invalid parameters 33 16667 -536805376
  680. [psxstr @ 0x7fb7e7128a00] Invalid parameters 33 19227 -536805376
  681. [psxstr @ 0x7fb7e7128a00] Invalid parameters 33 21531 -536805376
  682. [psxstr @ 0x7fb7e7128a00] Invalid parameters 33 23835 -536805376
  683. [psxstr @ 0x7fb7e7128a00] Invalid parameters 33 26395 -536805376
  684. Input #0, psxstr, from '/Volumes/NO NAME/a.MPG':
  685.   Duration: N/A, start: 0.000000, bitrate: N/A
  686.     Stream #0:0: Audio: adpcm_xa
  687.       18900 Hz, stereo, s16p
  688. [14:58:46] hb_stream_open: open /Volumes/NO NAME/a.MPG failed
  689. [14:58:46] scan: unrecognized file type
  690. [14:58:46] libhb: scan thread found 0 valid title(s)
  691. [14:58:47] macgui: ScanCore scan done
RAW Paste Data
We use cookies for various purposes including analytics. By continuing to use Pastebin, you agree to our use of cookies as described in the Cookies Policy. OK, I Understand
Not a member of Pastebin yet?
Sign Up, it unlocks many cool features!
 
Top